<?xml version="1.0" standalone="no"?>
<!DOCTYPE svg PUBLIC "-//W3C//DTD SVG 1.1//EN" "http://www.w3.org/Graphics/SVG/1.1/DTD/svg11.dtd" >
<svg xmlns="http://www.w3.org/2000/svg" xmlns:xlink="http://www.w3.org/1999/xlink" version="1.1">
<metadata></metadata>
<defs>
<font id="didotbold" horiz-adv-x="1228" >
<font-face units-per-em="2048" ascent="1434" descent="-614" />
<missing-glyph horiz-adv-x="358" />
<glyph unicode="&#xfb01;" horiz-adv-x="1191" d="M70 848v24h157v41q0 605 496 605q139 0 229 -78q88 -76 88 -170q0 -52 -33.5 -89.5t-86.5 -37.5q-56 0 -87.5 26t-31.5 68q0 18 21.5 64.5t21.5 72.5q0 115 -164 115q-96 0 -156.5 -62t-60.5 -180v-375h563v-847h127v-25h-487v25h127v823h-330v-823h125v-25h-490v25h129 v823h-157z" />
<glyph unicode="&#xfb02;" horiz-adv-x="1191" d="M70 848v24h157v41q0 171 37.5 297.5t104.5 190.5q125 117 286 117q124 0 189 -56l172 56l12 -7v-1486h127v-25h-489v25h127v1204q0 120 -44 190t-108 70q-178 0 -178 -242v-375h192v-24h-192v-823h110v-25h-475v25h129v823h-157z" />
<glyph unicode="&#xfb03;" horiz-adv-x="1757" d="M70 848v24h157v82q0 562 355 562q77 0 147 -52q72 -54 72 -123q0 -43 -31.5 -75.5t-75.5 -32.5q-106 0 -106 78q0 15 15 52t15 60q0 74 -57 74q-98 0 -98 -258v-367h330v39q0 605 495 605q140 0 230 -78q88 -76 88 -170q0 -52 -34 -89.5t-87 -37.5q-56 0 -87.5 26 t-31.5 68q0 18 21.5 64.5t21.5 72.5q0 115 -164 115q-96 0 -156.5 -62t-60.5 -180v-373h563v-847h127v-25h-487v25h127v823h-330v-823h125v-25h-489v25h129v823h-330v-823h133v-25h-498v25h129v823h-157z" />
<glyph unicode="&#xfb04;" horiz-adv-x="1757" d="M70 848v24h157v82q0 564 355 564q77 0 147 -52q72 -54 72 -123q0 -43 -31.5 -75.5t-75.5 -32.5q-106 0 -106 78q0 15 15 52t15 60q0 74 -57 74q-98 0 -98 -260v-367h330v41q0 171 37 297.5t104 190.5q125 117 287 117q123 0 188 -56l172 56l12 -7v-1486h127v-25h-489v25 h127v1204q0 120 -44 190t-108 70q-178 0 -178 -242v-375h193v-24h-193v-823h111v-25h-475v25h129v823h-330v-823h133v-25h-498v25h129v823h-157z" />
<glyph horiz-adv-x="0" />
<glyph horiz-adv-x="682" />
<glyph unicode=" "  horiz-adv-x="358" />
<glyph unicode="&#x09;" horiz-adv-x="358" />
<glyph unicode="&#xa0;" horiz-adv-x="358" />
<glyph unicode="!" horiz-adv-x="487" d="M109 1239q0 82 37 121t98 39t98 -39t37 -121q0 -64 -62 -383q-61 -314 -61 -508h-25q0 194 -61 508t-61 383zM113 109q0 54 37.5 91.5t91.5 37.5q60 0 98.5 -36.5t38.5 -92.5q0 -61 -38.5 -101.5t-98.5 -40.5q-54 0 -91.5 41t-37.5 101z" />
<glyph unicode="&#x22;" horiz-adv-x="645" d="M92 1296q0 43 19 73t57 30q39 0 58.5 -30.5t19.5 -72.5q0 -44 -29 -176q-27 -124 -33 -180l-2 -20h-24l-2 20q-4 42 -35 182q-29 132 -29 174zM358 1296q0 43 19 73t57 30q39 0 58.5 -30.5t19.5 -72.5q0 -44 -29 -176q-25 -116 -32 -180l-2 -20h-25l-2 20q-4 42 -35 182 q-29 132 -29 174z" />
<glyph unicode="#" horiz-adv-x="962" d="M6 451l31 145h227l68 207h-215l33 145h227l84 266h26l-84 -266h250l86 266h27l-84 -266h221l-33 -145h-233l-68 -207h222l-33 -145h-232l-90 -283h-26l90 283h-254l-88 -283h-27l88 283h-213zM291 596h250l69 207h-250z" />
<glyph unicode="$" horiz-adv-x="1138" d="M96 279q0 59 35 96t82 37q48 0 80.5 -33t32.5 -82q0 -46 -37 -76q-35 -30 -35 -63q0 -49 54 -98t130 -62v608q-315 119 -315 357q0 163 86.5 276.5t228.5 146.5v175h25v-170q33 8 88 8q37 0 65 -4v166h25v-170q115 -20 207 -103q90 -81 90 -176q0 -55 -35 -92t-80 -37 q-44 0 -75 33t-31 80t33 73q32 25 32 60q0 46 -40 88.5t-101 54.5v-561q175 -63 256.5 -149t81.5 -222q0 -167 -94 -295q-94 -126 -244 -163v-177h-25v170q-52 -8 -88 -8q-37 0 -65 4v-166h-25v170q-131 23 -239 111q-103 89 -103 193zM268 1149q0 -88 39 -147.5t131 -108.5 v475q-170 -50 -170 -219zM463 -6q54 -4 63 -4q32 0 90 10v539q-13 5 -63.5 24.5t-89.5 34.5v-604zM463 881q80 -37 153 -62v557q-24 6 -63 6q-38 0 -90 -10v-491zM641 6q88 25 143.5 83.5t55.5 131.5q0 216 -199 307v-522z" />
<glyph unicode="%" horiz-adv-x="1423" d="M102 1042q0 139 93 240q93 100 225 100q136 0 229 -100q94 -98 94 -240q0 -138 -94 -239q-94 -98 -229 -98q-131 0 -225 98q-93 104 -93 239zM285 -25l825 1444l35 -20l-830 -1446zM287 1042q0 -83 6.5 -141.5t17 -92t28.5 -52t36 -24t45 -5.5q76 0 106 59q31 64 31 256 q0 184 -29.5 251t-107.5 67q-74 0 -103.5 -68.5t-29.5 -249.5zM680 322q0 139 92 239q94 101 225 101q136 0 230 -101q94 -98 94 -239q0 -139 -94 -240q-94 -98 -230 -98q-131 0 -225 98q-92 103 -92 240zM864 322q0 -83 6.5 -141.5t17 -92t28.5 -52.5t36 -24.5t45 -5.5 q76 0 107 60q31 64 31 256q0 183 -29.5 250t-108.5 67q-74 0 -103.5 -68t-29.5 -249z" />
<glyph unicode="&#x26;" horiz-adv-x="1509" d="M84 365q0 282 326 485q-35 116 -35 186q0 162 79.5 262.5t202.5 100.5q207 0 207 -176q0 -82 -48 -158t-142 -125q86 -269 377 -694q67 122 94 350q16 80 0.5 112.5t-76.5 32.5h-76v25h355v-25h-82q-38 0 -55.5 -6.5t-24.5 -25.5q-4 -22 -6 -27q-4 -18 -9 -86 q-27 -242 -104 -375l45 -67q39 -58 67.5 -80.5t65.5 -22.5q82 0 119 88l18 -14q-32 -70 -114.5 -113t-177.5 -43q-112 0 -232 99q-162 -101 -330 -101q-195 0 -321 111q-123 111 -123 287zM297 530q0 -112 43 -213q47 -106 153 -176.5t242 -70.5q61 0 105 20q-33 33 -95 127 q-257 405 -327 614q-121 -103 -121 -301zM618 1196q0 -75 48 -233q170 95 170 260q0 61 -33.5 102t-81.5 41q-55 0 -79 -40.5t-24 -129.5z" />
<glyph unicode="'" horiz-adv-x="356" d="M92 1296q0 43 19 73t57 30q39 0 58.5 -30.5t19.5 -72.5q0 -44 -29 -176q-27 -124 -33 -180l-2 -20h-24l-2 20q-4 42 -35 182q-29 132 -29 174z" />
<glyph unicode="(" horiz-adv-x="589" d="M123 506q0 323 121.5 583t345.5 422l28 -24q-89 -62 -145 -154q-57 -98 -91 -307.5t-34 -519.5q0 -321 35 -529q38 -208 90 -299q55 -90 145 -153l-28 -25q-224 162 -345.5 422.5t-121.5 583.5z" />
<glyph unicode=")" horiz-adv-x="589" d="M-33 -475q93 65 144 153q58 97 92.5 306.5t34.5 521.5q0 327 -37 530q-35 206 -90 297q-51 90 -144 154l29 24q224 -162 345.5 -422t121.5 -583t-121.5 -583.5t-345.5 -422.5z" />
<glyph unicode="*" horiz-adv-x="608" d="M87.5 1062.5q6.5 21.5 27.5 33.5q9 5 34 6t58 7.5t63 25.5l13 6l-15 8q-43 22 -94 27t-59 10q-21 12 -27.5 33.5t4.5 46.5q30 49 82 22q8 -5 21 -26t36 -47t54 -44l10 -6v11q0 48 -22.5 98t-22.5 57q0 24 17 42t42 18q26 0 43 -18t17 -42q0 -7 -22.5 -57t-22.5 -98v-11 l10 6q31 18 53.5 43.5t36 46t22.5 25.5q18 13 43 7.5t37 -27.5q12 -25 5.5 -47.5t-27.5 -34.5q-22 -11 -62 -8q-45 3 -94 -29l-12 -8l12 -4q41 -20 94 -26.5t62 -12.5q50 -26 22 -80q-12 -23 -37 -29.5t-43 6.5q-9 5 -22.5 26t-36 47t-53.5 44l-10 4v-10q0 -47 22.5 -97 t22.5 -59q0 -24 -17 -41.5t-43 -17.5t-42.5 17.5t-16.5 41.5q0 9 22.5 59t22.5 97v10l-10 -4q-31 -18 -53.5 -44t-35.5 -47t-22 -26q-53 -27 -82 23q-11 25 -4.5 46.5z" />
<glyph unicode="+" d="M100 444v111h449v442h123v-442h450v-111h-450v-444h-123v444h-449z" />
<glyph unicode="," horiz-adv-x="452" d="M70 -283q50 9 98 66q49 55 49 102q0 73 -76 125q-49 37 -49 101q0 51 38.5 89t92.5 38q133 0 133 -158q0 -107 -82 -232q-83 -127 -198 -161z" />
<glyph unicode="-" horiz-adv-x="651" d="M82 416v145h487v-145h-487z" />
<glyph unicode="." horiz-adv-x="452" d="M92 109q0 54 37.5 91.5t91.5 37.5q60 0 98.5 -36.5t38.5 -92.5q0 -61 -38.5 -101.5t-98.5 -40.5q-54 0 -91.5 41t-37.5 101z" />
<glyph unicode="/" horiz-adv-x="696" d="M55 -16l551 1415l37 -17l-553 -1415z" />
<glyph unicode="0" horiz-adv-x="1024" d="M55 684q0 314 135 508q138 194 318 194q181 0 319 -194t138 -508q0 -313 -148 -508q-144 -194 -330 -194q-180 0 -305 192q-127 195 -127 510zM287 684q2 -153 5.5 -254.5t13.5 -180.5t23 -123t36.5 -72.5t51 -38.5t70.5 -13q87 0 136 49q110 110 110 633 q-2 279 -22.5 420.5t-66.5 199t-136 62.5q-130 0 -176 -141q-45 -136 -45 -541z" />
<glyph unicode="1" horiz-adv-x="1024" d="M276 0v25h144v1316h-144v25h365v-1341h143v-25h-508z" />
<glyph unicode="2" horiz-adv-x="1024" d="M131 0v70l301 354q143 187 184 307q41 121 41 322q0 167 -43.5 241t-140.5 74q-62 0 -106.5 -38.5t-44.5 -98.5q0 -12 8 -46t8 -42q0 -28 -27.5 -51t-68.5 -23t-68 29.5t-27 66.5q0 74 101 144q101 73 225 73q164 0 285 -86q123 -83 123 -262q0 -68 -37 -146t-88 -140 q-77 -87 -146 -160q-77 -82 -153 -170l-215 -252v-8h426q91 0 131.5 36.5t40.5 120.5h14v-315h-723z" />
<glyph unicode="3" horiz-adv-x="1024" d="M102 203q0 43 24 69.5t71 26.5q45 0 69.5 -21.5t24.5 -52.5q0 -11 -7.5 -41t-7.5 -43q0 -65 41 -100t105 -35q54 1 87.5 8.5t63 29t45.5 64t25.5 109t11.5 166.5q-1 68 -2.5 113t-6 86t-9 64.5t-14.5 44.5t-20.5 30.5t-29.5 17t-37.5 9.5t-48.5 4q-41 0 -157 -70l-13 18 q121 65 166 107q48 45 69 116t21 203q0 136 -28 185t-103 49q-51 0 -87 -35t-36 -86q0 -13 9.5 -42t9.5 -40q0 -33 -24.5 -55.5t-71.5 -22.5q-45 0 -68.5 27.5t-23.5 71.5q0 60 90 129t202 69q165 0 262 -68.5t97 -199.5q0 -108 -117 -213q-115 -103 -201 -125q36 4 45 4 q169 -6 263 -117q96 -110 96 -258q0 -185 -146 -301q-141 -112 -319 -112q-133 0 -225 69q-95 71 -95 148z" />
<glyph unicode="4" horiz-adv-x="1024" d="M84 469q95 147 133 223l324 672q58 -18 164 35q100 50 147 100l29 -22l-762 -996h430v215q58 6 121 66q63 63 80 112h20v-393h205v-22h-205v-434h143v-25h-507v25h143v434h-463z" />
<glyph unicode="5" horiz-adv-x="1024" d="M111 197q0 40 24 68t66 28q47 0 73.5 -21.5t26.5 -52.5q0 -11 -8 -41t-8 -43q0 -66 40.5 -100.5t108.5 -34.5q122 0 162 82q43 82 43 332q0 115 -5.5 177.5t-21.5 115.5q-13 56 -45.5 80t-87.5 24q-149 0 -176 -129v-66q0 -18 -18 -18q-17 0 -17 20q0 5 3 31t3 31v661h5 q51 -45 167 -45q91 0 164 52q71 51 103 51q90 0 90 -78q0 -66 -63.5 -105.5t-166.5 -39.5q-83 0 -164.5 30t-111.5 78v-555q21 45 83 80t144 35q174 0 256 -119q86 -118 86 -293q0 -208 -133 -332q-132 -120 -299 -120q-135 0 -229 67q-94 70 -94 150z" />
<glyph unicode="6" horiz-adv-x="1024" d="M106 588q0 199 60 379q57 173 174 290q115 115 258 115q109 0 186 -65q78 -66 78 -127q0 -45 -22.5 -74t-67.5 -29q-48 0 -76 24t-28 58q0 11 13 48t13 48q0 56 -21 78.5t-75 22.5q-247 0 -262 -674q76 88 203 88q166 0 280 -117q113 -113 113 -276t-119 -279 q-117 -114 -287 -114q-190 0 -305 159.5t-115 444.5zM338 289q7 -115 24 -160q21 -56 61.5 -93t102.5 -32q74 0 115 35q66 66 66 338t-66 338q-38 35 -115 35q-76 0 -133 -45q-55 -46 -55 -84v-252v-80z" />
<glyph unicode="7" horiz-adv-x="1024" d="M225 1036v330h713q-1 -1 -7 -16.5t-20 -50t-30 -72.5q-59 -149 -78 -211l-314 -1016h-239l598 1198h-424q-94 0 -137 -38t-43 -124h-19z" />
<glyph unicode="8" horiz-adv-x="1024" d="M92 340q0 231 285 348q-113 85 -168 162.5t-55 177.5q0 126 90 236q88 110 260 110q151 0 258 -84q104 -82 104 -205q0 -97 -59.5 -163.5t-192.5 -122.5q79 -50 150 -107q56 -45 110 -129q54 -85 54 -178q0 -171 -113 -287q-111 -114 -311 -114q-167 0 -291 92 q-121 95 -121 264zM270 352q0 -170 60.5 -259t173.5 -89q125 0 195.5 63.5t70.5 190.5q0 122 -86 205q-52 52 -82 72q-29 21 -108 73q-83 55 -107 72q-69 -63 -94 -131q-23 -71 -23 -197zM322 1143q-10 -87 61 -176q7 -10 26 -27t41.5 -34.5t26.5 -20.5q3 -2 60 -39 q43 -25 59 -37q60 29 84.5 84t24.5 156q0 307 -201 307q-94 0 -138 -57.5t-44 -155.5z" />
<glyph unicode="9" horiz-adv-x="1024" d="M92 979q0 157 121 278q122 119 293 119q190 0 305 -161.5t115 -446.5q0 -198 -60 -381q-58 -176 -174 -291q-112 -112 -258 -112q-130 0 -205 63t-75 129q0 44 24.5 75.5t69.5 31.5q48 0 74 -24.5t26 -61.5q0 -11 -13 -47.5t-13 -49.5q0 -100 112 -100q72 0 124.5 51.5 t78.5 145.5q50 165 59 467q-77 -89 -202 -89q-192 0 -297 117t-105 287zM317 979q0 -274 74 -348q38 -35 115 -35t131 45q57 45 57 84v262q0 90 -2 117q0 31 -10 96q-14 80 -52 114.5t-124 41.5q-74 0 -115 -35q-74 -74 -74 -342z" />
<glyph unicode=":" horiz-adv-x="452" d="M92 109q0 54 37.5 91.5t91.5 37.5q60 0 98.5 -36.5t38.5 -92.5q0 -61 -38.5 -101.5t-98.5 -40.5q-54 0 -91.5 41t-37.5 101zM92 764q0 54 37.5 91.5t91.5 37.5q60 0 98.5 -36.5t38.5 -92.5q0 -60 -38.5 -100.5t-98.5 -40.5q-54 0 -91.5 40.5t-37.5 100.5z" />
<glyph unicode=";" horiz-adv-x="452" d="M70 -283q50 9 98 66q49 55 49 102q0 73 -76 125q-49 37 -49 101q0 51 38.5 89t92.5 38q133 0 133 -158q0 -107 -82 -232q-83 -127 -198 -161zM92 764q0 54 37.5 91.5t91.5 37.5q60 0 98.5 -36.5t38.5 -92.5q0 -60 -38.5 -100.5t-98.5 -40.5q-54 0 -91.5 40.5t-37.5 100.5 z" />
<glyph unicode="&#x3c;" d="M102 436v121l1022 410v-123l-878 -348l878 -344v-123z" />
<glyph unicode="=" d="M100 250v110h1024v-110h-1024zM100 633v110h1024v-110h-1024z" />
<glyph unicode="&#x3e;" d="M102 29v123l877 344l-877 348v123l1022 -410v-121z" />
<glyph unicode="?" horiz-adv-x="899" d="M6 1085q0 101 121 207q119 107 252 107q191 0 313 -113q123 -111 123 -289q0 -174 -106 -295q-108 -120 -252 -120q-79 0 -125 30v-264h-23v326h2q35 -68 146 -68q54 0 82 31q21 24 24 84q6 61 6 276q0 155 -13.5 227.5t-49.5 110.5q-39 39 -127 39q-73 0 -116.5 -46 t-43.5 -122q0 -30 16.5 -76.5t16.5 -66.5q0 -44 -33.5 -73t-89.5 -29q-123 0 -123 124zM193 109q0 54 37.5 91.5t91.5 37.5q60 0 98.5 -36.5t38.5 -92.5q0 -61 -38.5 -101.5t-98.5 -40.5q-54 0 -91.5 41t-37.5 101z" />
<glyph unicode="@" horiz-adv-x="1603" d="M152 682q0 297 200 506q199 211 479 211q263 0 435 -166t172 -455q0 -209 -129 -323q-127 -115 -281 -115q-103 0 -157 58.5t-33 138.5q-77 -197 -189 -197q-95 0 -143.5 67.5t-48.5 176.5q0 158 123 299q122 143 284 143q83 0 86 -86l21 70h162l-93 -308 q-55 -185 -55 -256q0 -40 18 -55.5t58 -15.5q141 0 246 117q106 115 106 286q0 278 -168 436q-171 160 -414 160q-267 0 -460 -205q-195 -204 -195 -487q0 -278 195 -485q196 -205 460 -205q237 0 412 153l17 -18q-189 -160 -429 -160q-279 0 -479 209q-200 212 -200 506z M610 500q0 -68 13 -98.5t43 -30.5q62 0 118 102q60 104 80 184l70 238q3 104 -78 104q-34 0 -74 -34q-74 -57 -125 -207q-47 -146 -47 -258z" />
<glyph unicode="A" horiz-adv-x="1236" d="M-41 0v25h117q42 0 69 79l453 1289h37l498 -1368h174v-25h-641v25h176l-137 426h-410l-125 -347q-12 -31 -15 -50t0 -24t9 -5h168v-25h-373zM303 475h389l-188 578z" />
<glyph unicode="B" d="M74 0v25h174v1316h-174v25h549q201 0 318.5 -82t117.5 -233q0 -136 -98 -230q-95 -92 -222 -92q176 0 291 -100q117 -99 117 -267q0 -147 -115 -256q-112 -106 -321 -106h-637zM520 25h142q129 0 172 67t43 258q0 226 -50 297q-46 70 -192 70h-115v-692zM520 739h133 q97 0 127 62q33 59 33 241q0 174 -45 236q-45 63 -176 63h-72v-602z" />
<glyph unicode="C" horiz-adv-x="1249" d="M92 682q0 293 172 504q177 213 434 213q45 0 150 -27q108 -24 147 -24q37 0 63.5 13.5t31.5 31.5h22v-465h-22q0 145 -129 295q-127 151 -263 151q-126 0 -192 -69q-115 -124 -115 -623q0 -497 115 -621q65 -71 201 -71q163 0 290 160q127 165 127 356h21v-535h-21 q-5 23 -27.5 40.5t-56.5 17.5q-35 0 -159 -31t-174 -31q-261 0 -439 211q-176 212 -176 504z" />
<glyph unicode="D" horiz-adv-x="1368" d="M74 0v25h174v1316h-174v25h596q249 0 426 -201q176 -200 176 -483q0 -282 -178 -481q-177 -201 -424 -201h-596zM520 25h150q128 0 192 67q62 65 86 193q25 138 25 397q0 481 -111 592q-64 67 -192 67h-150v-1316z" />
<glyph unicode="E" horiz-adv-x="1220" d="M72 0v25h176v1316h-176v25h1003v-412h-24q0 151 -86 269q-81 118 -246 118h-201v-626h45q103 0 166.5 76.5t63.5 185.5h26v-549h-26q0 109 -63.5 185.5t-166.5 76.5h-45v-665h207q208 0 317 127q107 128 107 299h22v-451h-1099z" />
<glyph unicode="F" horiz-adv-x="1173" d="M74 0v25h174v1316h-174v25h1003v-412h-24q0 147 -105 267q-102 120 -266 120h-162v-626h47q112 0 191 82q80 83 80 186h22v-563h-22q0 104 -82 186q-81 84 -189 84h-47v-665h178v-25h-624z" />
<glyph unicode="G" horiz-adv-x="1286" d="M92 682q0 293 172 504q177 213 434 213q54 0 140 -27q88 -24 106 -24q37 0 63.5 13.5t28.5 31.5h25v-461h-25q0 153 -102 297q-103 145 -236 145q-126 0 -192 -69q-113 -119 -113 -623q0 -271 17 -424q15 -132 71 -197q65 -71 193 -71q119 0 169 40.5t50 127.5v372h-174 v25h622v-25h-176v-538h-18q0 74 -76 74q-24 0 -151 -50q-125 -49 -246 -49q-263 0 -422 211q-160 213 -160 504z" />
<glyph unicode="H" horiz-adv-x="1454" d="M74 0v25h174v1316h-174v25h604v-25h-158v-616h412v616h-156v25h604v-25h-174v-1316h174v-25h-604v25h156v675h-412v-675h158v-25h-604z" />
<glyph unicode="I" horiz-adv-x="768" d="M74 0v25h174v1316h-174v25h624v-25h-178v-1316h178v-25h-624z" />
<glyph unicode="J" horiz-adv-x="974" d="M53 240q0 71 45 120.5t101 49.5q57 0 99 -44.5t42 -101.5q0 -63 -45 -102t-45 -68q0 -43 40.5 -73.5t92.5 -30.5q68 0 92.5 34.5t24.5 122.5v1194h-174v25h622v-25h-178v-1019q0 -164 -106 -259.5t-281 -95.5q-128 0 -229 82t-101 191z" />
<glyph unicode="K" horiz-adv-x="1300" d="M74 0v25h174v1316h-174v25h624v-25h-176v-653l475 574q41 51 41 69q0 10 -12 10h-133v25h364v-25h-112q-29 0 -51.5 -13.5t-65.5 -65.5l-328 -398l574 -839h190v-25h-696v25h188l-434 651v-651h176v-25h-624z" />
<glyph unicode="L" horiz-adv-x="1161" d="M74 0v25h174v1316h-174v25h624v-25h-176v-1316h148q194 0 307 137q115 139 115 305h24v-467h-1042z" />
<glyph unicode="M" horiz-adv-x="1699" d="M63 0v25h109q68 0 68 59v1257h-177v25h459l344 -960l308 960h452v-25h-174v-1316h174v-25h-622v25h174v1278l-420 -1328h-21l-473 1332v-1223q0 -59 70 -59h121v-25h-392z" />
<glyph unicode="N" horiz-adv-x="1355" d="M63 1341v25h488l584 -932v850q0 57 -68 57h-106v25h374v-25h-104q-72 0 -72 -57v-1309h-41l-854 1344v-1235q0 -59 70 -59h106v-25h-374v25h106q68 0 68 59v1257h-177z" />
<glyph unicode="O" horiz-adv-x="1398" d="M92 682q0 293 172 504q177 213 434 213q250 0 428 -211q179 -209 179 -506t-179 -506t-428 -209t-428 209q-178 208 -178 506zM393 682q0 -270 25 -414q27 -138 90 -207q65 -71 190 -71q128 0 193 71q64 67 88 205q25 144 25 416q0 504 -113 623q-66 69 -193 69t-190 -69 q-115 -121 -115 -623z" />
<glyph unicode="P" horiz-adv-x="1196" d="M74 0v25h174v1316h-174v25h549q245 0 381 -115q135 -114 135 -297q0 -177 -120 -275.5t-337 -98.5q-78 0 -160 24v-579h176v-25h-624zM522 635q67 -31 160 -31q129 0 156 64q28 67 28 286q0 209 -56 298t-187 89h-101v-706z" />
<glyph unicode="Q" horiz-adv-x="1398" d="M92 682q0 293 172 504q177 213 434 213q251 0 426 -211q179 -209 179 -506q0 -172 -95 -360q-91 -186 -231 -273q-42 -28 -146 -69q-94 -39 -208 -78q-116 -41 -150 -56q165 0 275.5 -32.5t156.5 -85.5q19 -21 44.5 -58t44 -60.5t48 -48.5t71 -37.5t97.5 -12.5v-39h-16 q-371 0 -502 139q-32 30 -58 73t-40 71.5t-44.5 49.5t-78.5 21q-13 0 -43 -23q-24 -24 -27 -24q-36 0 -36 26q0 25 57 48l297 114h-21q-249 0 -428 209q-178 208 -178 506zM393 682q0 -270 25 -414q27 -138 90 -207q65 -71 190 -71q128 0 193 71q64 67 88 205q25 144 25 416 q0 504 -113 623q-66 69 -193 69t-190 -69q-115 -121 -115 -623z" />
<glyph unicode="R" horiz-adv-x="1290" d="M74 0v25h174v1316h-174v25h583q202 0 324 -96q121 -95 121 -240q0 -133 -101 -227q-103 -92 -245 -92q198 0 301 -109q102 -108 102 -264v-168q0 -141 103 -141q57 0 94 43l14 -17q-61 -67 -160 -67q-131 0 -231 92q-98 91 -98 282v105q0 121 -65.5 176t-201.5 55h-94 v-673h156v-25h-602zM520 723h94q138 0 177 57q38 55 38 244q0 185 -45 250q-46 67 -174 67h-90v-618z" />
<glyph unicode="S" horiz-adv-x="1040" d="M104 -27v463h25q0 -79 53 -182q52 -102 154 -184q103 -80 215 -80q147 0 224 66.5t77 174.5q0 75 -19.5 120t-74.5 85q-56 41 -115 68q-58 27 -186 74q-161 60 -236.5 147t-75.5 238q0 186 107 311t254 125q60 0 125 -27q67 -24 117 -24q68 0 77 45h21v-359h-21 q0 137 -94 238q-95 102 -223 102q-108 0 -171 -61t-63 -162t74.5 -169t255.5 -136q203 -76 299 -162q92 -83 92 -246q0 -185 -118 -327q-120 -144 -324 -144q-74 0 -184 39q-115 41 -140 41q-38 0 -66.5 -22t-33.5 -52h-25z" />
<glyph unicode="T" horiz-adv-x="1255" d="M41 897v469h1173v-469h-22q0 187 -100 313q-101 131 -293 131h-39v-1316h172v-25h-621v25h176v1316h-41q-192 0 -286 -131q-94 -128 -94 -313h-25z" />
<glyph unicode="U" horiz-adv-x="1333" d="M39 1341v25h623v-25h-181v-976q0 -184 59 -270.5t197 -86.5q182 0 279.5 101.5t97.5 281.5v893q0 57 -70 57h-114v25h385v-25h-107q-69 0 -69 -57v-878q0 -211 -113 -325t-336 -114q-225 0 -351 104.5t-126 307.5v962h-174z" />
<glyph unicode="V" horiz-adv-x="1277" d="M-61 1341v25h673v-25h-200l413 -1022l320 941q7 36 7 54q0 11 -2 15q-6 12 -36 12h-143v25h399v-25h-123q-53 0 -80 -81l-438 -1289h-37l-567 1370h-186z" />
<glyph unicode="W" horiz-adv-x="1923" d="M-82 1341v25h651v-25h-176l371 -991l213 654l-117 337h-194v25h680v-25h-205l342 -991l303 920q7 24 6.5 38t-10.5 21.5t-17.5 9.5t-13.5 2h-129v25h387v-25h-119q-33 0 -51 -16t-35 -65l-426 -1289h-37l-352 1006l-330 -1006h-41l-514 1370h-186z" />
<glyph unicode="X" horiz-adv-x="1331" d="M6 1341v25h672v-25h-191l269 -501l248 420q20 35 22 53.5t-6.5 23t-26.5 4.5h-119v25h383v-25h-120q-63 0 -109 -81l-260 -443l432 -792h191v-25h-674v25h190l-305 567l-285 -486q-22 -36 -22 -56q0 -25 35 -25h114v-25h-383v25h119q62 0 111 81l303 512l-401 723h-187z " />
<glyph unicode="Y" horiz-adv-x="1241" d="M-27 1341v25h678v-25h-198l340 -692l278 611q14 30 14 48q0 33 -41 33h-131v25h385v-25h-112q-55 0 -99 -92l-288 -637v-587h176v-25h-621v25h176v571l-366 745h-191z" />
<glyph unicode="Z" horiz-adv-x="1177" d="M96 0l684 1341h-196q-176 0 -285 -133q-106 -130 -106 -311h-25v469h907l-682 -1341h258q180 0 287 137q111 138 111 315h26v-477h-979z" />
<glyph unicode="[" horiz-adv-x="575" d="M168 -485v1980h475v-25h-250v-1929h250v-26h-475z" />
<glyph unicode="\" horiz-adv-x="696" d="M55 1382l37 17l549 -1415l-35 -17z" />
<glyph unicode="]" horiz-adv-x="563" d="M-82 -459h250v1929h-250v25h475v-1980h-475v26z" />
<glyph unicode="^" d="M213 545l344 852h119l346 -852h-129l-279 706l-272 -706h-129z" />
<glyph unicode="_" horiz-adv-x="1105" d="M70 0v41h966v-41h-966z" />
<glyph unicode="`" horiz-adv-x="724" d="M133 1321q0 33 23.5 57.5t58.5 24.5q39 0 86 -47l287 -314l-10 -10l-402 223q-43 21 -43 66z" />
<glyph unicode="a" horiz-adv-x="966" d="M76 199q0 227 297 254q77 6 147 18q36 6 51 16t15 27v162q0 111 -30.5 153.5t-96.5 42.5q-109 0 -109 -94q0 -13 8.5 -44t8.5 -42q0 -37 -27 -59.5t-76 -22.5q-48 0 -74 29t-26 74q0 64 86 123q86 57 209 57q173 0 266.5 -94t93.5 -277v-422q0 -69 47 -69q33 0 74 47 l16 -15q-15 -28 -64 -53.5t-101 -25.5q-69 0 -130 40t-71 95q-46 -135 -207 -135q-128 0 -217 51q-90 53 -90 164zM309 182q0 -91 23 -128.5t88 -37.5q73 0 119.5 63.5t46.5 156.5v233q-10 -6 -80 -29q-6 -1 -27.5 -3t-40 -4t-24.5 -3q-59 -12 -82 -64t-23 -184z" />
<glyph unicode="b" horiz-adv-x="1153" d="M51 1481v24h367v-698q78 84 198 84q183 0 314 -143q133 -142 133 -318t-119 -313q-117 -135 -297 -135q-108 0 -223 86q-75 57 -135 57q-32 0 -56 -36t-24 -89h-25v1481h-133zM418 143q28 -63 93 -100t136 -37q119 0 148 168q12 64 16 129q4 70 4 127q0 327 -72 393 q-46 43 -127 43q-63 0 -121.5 -32t-76.5 -82v-609z" />
<glyph unicode="c" horiz-adv-x="954" d="M88 436q0 189 131 320q132 135 316 135q136 0 239 -80t103 -166q0 -94 -99 -94q-42 0 -68 22.5t-26 55.5q0 16 13.5 51.5t13.5 60.5q0 63 -47 93q-43 32 -129 32q-82 0 -125 -43q-41 -41 -57.5 -128t-16.5 -259t16.5 -259t57.5 -128q43 -43 125 -43q206 0 344 203l16 -16 q-147 -211 -360 -211q-183 0 -316 133q-131 134 -131 321z" />
<glyph unicode="d" horiz-adv-x="1140" d="M88 430q0 173 133 318q134 143 318 143q118 0 196 -84v674h-129v24h365v-1480h133v-25h-369v96q-14 -40 -78.5 -77t-148.5 -37q-181 0 -301 135q-119 137 -119 313zM336 430q0 -266 55 -354q44 -68 117 -68q110 0 168.5 51.5t58.5 126.5v564q-17 50 -74 82t-122 32 q-81 0 -127 -43q-76 -73 -76 -391z" />
<glyph unicode="e" horiz-adv-x="1015" d="M88 436q0 188 135 320q138 135 322 135q124 0 219 -74q91 -68 134.5 -155.5t43.5 -172.5v-6h-606v-47q1 -105 7 -172.5t19 -119t37.5 -79t58.5 -41.5t87 -18q107 0 201.5 51t156.5 136l17 -17q-60 -88 -161.5 -141t-213.5 -53q-183 0 -322 133q-135 135 -135 321z M336 508h391q-3 239 -70 315q-34 43 -112 43q-86 0 -129 -43q-77 -77 -80 -315z" />
<glyph unicode="f" horiz-adv-x="704" d="M70 848v24h157v82q0 562 355 562q77 0 147 -52q72 -54 72 -123q0 -43 -31.5 -75.5t-75.5 -32.5q-106 0 -106 78q0 15 15 52t15 60q0 74 -57 74q-98 0 -98 -258v-367h192v-24h-192v-823h133v-25h-498v25h129v823h-157z" />
<glyph unicode="g" horiz-adv-x="1034" d="M39 -365q0 82 72 154q71 71 168 96q-89 17 -151 80.5t-62 140.5q0 80 42 134t136 112q-86 103 -86 209q0 139 102 234q107 96 252 96q172 0 274 -123q64 123 181 123q51 0 78.5 -30.5t27.5 -76.5q0 -40 -19 -64t-46 -24q-31 0 -49.5 14t-18.5 35q0 9 8 27t8 25 q0 14 -15 28.5t-32 14.5q-69 0 -110 -84q65 -77 65 -195q0 -137 -102 -231q-105 -97 -250 -97q-73 0 -143.5 31t-116.5 74q-68 -53 -68 -135q0 -71 39 -93t146 -22h272q190 0 296.5 -90t106.5 -256q0 -118 -83 -207q-157 -168 -435 -168q-215 0 -352 76q-135 77 -135 192z M190 -342q0 -151 77 -208.5t259 -57.5q167 0 272 68.5t105 193.5q0 98 -71 161.5t-201 63.5h-281q-37 0 -43 2q-67 -39 -92 -86t-25 -137zM367 563q0 -217 57 -274q28 -31 88 -31q59 0 90 31q53 56 53 274q0 224 -53 277q-26 26 -90 26q-62 0 -88 -26q-57 -57 -57 -277z" />
<glyph unicode="h" horiz-adv-x="1173" d="M51 0v25h133v1456h-133v24h369v-774q25 77 90.5 118.5t148.5 41.5q166 0 260.5 -90.5t94.5 -251.5v-524h131v-25h-494v25h127v630q0 209 -119 209q-92 0 -148 -48t-91 -154v-637h129v-25h-498z" />
<glyph unicode="i" horiz-adv-x="628" d="M74 0v25h135v823h-135v24h368v-847h133v-25h-501zM190 1225q0 54 37.5 91.5t91.5 37.5q60 0 99 -36.5t39 -92.5q0 -60 -39 -101t-99 -41q-54 0 -91.5 41t-37.5 101z" />
<glyph unicode="j" horiz-adv-x="602" d="M-141 -473q0 43 32 77t76 34q50 0 78.5 -23t28.5 -61q0 -15 -16.5 -50.5t-16.5 -58.5q0 -37 12 -50t47 -13q109 0 109 241v1225h-133v24h366v-921q0 -308 -100.5 -453t-284.5 -145q-77 0 -137 51q-61 52 -61 123zM193 1225q0 54 37.5 91.5t91.5 37.5q60 0 98.5 -36.5 t38.5 -92.5q0 -61 -38.5 -101.5t-98.5 -40.5q-54 0 -91.5 41t-37.5 101z" />
<glyph unicode="k" horiz-adv-x="1112" d="M53 0v25h135v1456h-135v24h369v-1024l311 281q44 49 44 71q0 13 -17 15h-78v24h326v-24h-86q-70 0 -160 -84l-182 -166l450 -573h137v-25h-518v25h123l-350 444v-444h131v-25h-500z" />
<glyph unicode="l" horiz-adv-x="585" d="M51 0v25h133v1456h-133v24h369v-1480h129v-25h-498z" />
<glyph unicode="m" horiz-adv-x="1781" d="M63 0v25h134v823h-134v24h367v-141q25 77 93 118.5t151 41.5q271 0 342 -164q34 81 102 122.5t152 41.5q178 0 265 -66t87 -217v-583h135v-25h-502v25h136v632q0 209 -121 209q-113 0 -178.5 -70.5t-65.5 -168.5v-602h133v-25h-497v25h129v632q0 209 -117 209 q-93 0 -151 -48t-93 -154v-639h131v-25h-498z" />
<glyph unicode="n" horiz-adv-x="1185" d="M63 0v25h134v823h-134v24h367v-141q25 77 93 118.5t151 41.5q166 0 260 -90.5t94 -251.5v-524h131v-25h-495v25h129v632q0 209 -119 209q-93 0 -151 -48t-93 -154v-639h133v-25h-500z" />
<glyph unicode="o" horiz-adv-x="1073" d="M88 436q0 189 131 320q132 135 316 135t317 -133t133 -322q0 -188 -133 -321t-317 -133q-183 0 -316 133q-131 134 -131 321zM334 436q0 -307 74 -387q43 -43 127 -43q89 0 129 43q75 75 75 387t-75 387q-40 43 -129 43q-84 0 -127 -43q-74 -80 -74 -387z" />
<glyph unicode="p" horiz-adv-x="1153" d="M51 -606h133v1454h-133v24h365v-71q32 38 87 64t113 26q183 0 314 -143q133 -142 133 -316q0 -179 -119 -313q-117 -135 -297 -135q-60 0 -124.5 28t-106.5 70v-688h133v-25h-498v25zM416 143q28 -63 94 -100t137 -37q91 0 129.5 97.5t38.5 328.5q0 252 -43 342 q-41 92 -156 92q-63 0 -122.5 -32t-77.5 -80v-611z" />
<glyph unicode="q" horiz-adv-x="1107" d="M88 432q0 176 133 318q132 141 316 141q129 0 198 -90v71h369v-24h-135v-1454h135v-25h-500v25h131v719q-79 -129 -229 -129q-179 0 -299 135q-119 134 -119 313zM334 432q0 -303 78 -381q46 -43 116 -43q90 0 148 64q59 65 59 129v553q-17 48 -75.5 79t-122.5 31 q-76 0 -125 -43q-78 -78 -78 -389z" />
<glyph unicode="r" horiz-adv-x="866" d="M51 0v25h133v823h-133v24h369v-141q31 90 80 125t127 35q88 0 146 -57t58 -132q0 -66 -31.5 -101.5t-86.5 -35.5q-53 0 -84 24.5t-31 63.5q0 22 15.5 58.5t15.5 48.5q0 36 -19 63t-45 27q-21 0 -37 -6t-35.5 -25.5t-38 -64.5t-34.5 -115v-614h127v-25h-496z" />
<glyph unicode="s" horiz-adv-x="813" d="M109 -2v315h24q0 -132 86 -221q86 -86 215 -86q91 0 141 48.5t50 138.5q0 70 -53.5 106.5t-196.5 69.5q-127 27 -188.5 83.5t-61.5 153.5q0 132 80 209q82 76 190 76q47 0 113.5 -19.5t75.5 -19.5q17 0 32 15.5t15 25.5h20v-254h-20q0 88 -78 160q-77 71 -158 71 q-73 0 -113 -41t-40 -120q0 -65 51 -98t196 -70q123 -31 196 -96.5t73 -159.5q0 -131 -89.5 -217t-234.5 -86q-75 0 -137 26q-66 29 -90 29q-25 0 -49 -13t-29 -26h-20z" />
<glyph unicode="t" horiz-adv-x="673" d="M37 848v24h164v172q63 6 127 70q66 66 80 115h22v-357h195v-24h-195v-760q0 -59 68 -59q40 0 76 42t57 107l18 -6q-52 -190 -241 -190q-108 0 -157.5 48.5t-49.5 151.5v666h-164z" />
<glyph unicode="u" horiz-adv-x="1165" d="M33 848v24h368v-657q0 -211 117 -211q95 0 152.5 49t93.5 156v639h-131v24h366v-847h131v-25h-366v141q-25 -77 -92.5 -118t-153.5 -41q-166 0 -258 84.5t-92 242.5v539h-135z" />
<glyph unicode="v" horiz-adv-x="960" d="M-31 848v24h529v-24h-148l283 -592l194 506q11 44 11 63q0 7 -2 10q-6 13 -39 13h-88v24h305v-24h-78q-36 0 -50.5 -15t-35.5 -71l-301 -778h-43l-414 864h-123z" />
<glyph unicode="w" horiz-adv-x="1509" d="M-49 848v24h520v-24h-139l256 -594l166 444l-72 150h-104v24h501v-24h-141l260 -588l195 502q12 34 12 53q0 9 -3 15q-9 18 -48 18h-84v24h305v-24h-72q-34 0 -51.5 -17.5t-36.5 -68.5l-291 -778h-41l-315 682l-252 -682h-41l-397 864h-127z" />
<glyph unicode="x" horiz-adv-x="1067" d="M4 848v24h557v-24h-155l208 -305l172 219q28 34 31 55.5t-5.5 26t-18.5 4.5h-103v24h311v-24h-69q-54 0 -119 -86l-186 -240l344 -497h129v-25h-539v25h141l-249 362l-230 -278q-39 -49 -39 -69q0 -15 21 -15h139v-25h-338v25h68q54 0 123 84l241 299l-299 440h-135z" />
<glyph unicode="y" horiz-adv-x="952" d="M-49 848v24h520v-24h-143l286 -590l193 504q12 30 12 49q0 37 -43 37h-88v24h313v-24h-75q-39 0 -56.5 -15t-40.5 -71l-481 -1245q-64 -166 -201 -166q-65 0 -110 48.5t-45 115.5q0 54 32.5 91.5t81.5 37.5q43 0 71 -25t28 -61q0 -16 -24.5 -57t-24.5 -58q0 -51 28 -51 q91 0 138 121l176 458l-424 877h-123z" />
<glyph unicode="z" horiz-adv-x="907" d="M66 0l507 848h-159q-136 0 -195 -67t-59 -201h-21v292h690l-503 -847h202q152 0 218.5 75.5t66.5 221.5h21v-322h-768z" />
<glyph unicode="{" horiz-adv-x="557" d="M129 -72q-3 62 22.5 141.5t57.5 141t58 121t24 86.5q0 54 -33 63q-16 4 -20 4q-9 0 -27.5 -3t-22.5 -3q-14 0 -14 27q0 24 14 24q4 0 22.5 -2t27.5 -2h20q33 14 33 66q2 27 -24 87t-58 122t-57.5 141t-22.5 139q0 190 102 310q100 118 275 118h51v-24h-51 q-103 0 -141.5 -69t-38.5 -249q0 -65 22 -249q23 -192 23 -254q0 -57 -27 -101t-76 -57q49 -17 76 -61.5t27 -98.5q0 -62 -23 -254q-22 -184 -22 -250q0 -179 38.5 -247t141.5 -68h51v-27h-51q-174 0 -275 119q-102 120 -102 309z" />
<glyph unicode="|" horiz-adv-x="303" d="M133 -47v1593h41v-1593h-41z" />
<glyph unicode="}" horiz-adv-x="557" d="M0 -473h51q100 0 140 69t40 246q0 75 -24 250q-23 192 -23 254q0 53 27.5 98t75.5 62q-47 13 -75 58.5t-28 99.5q0 62 23 254q24 176 24 249q0 178 -40 248t-140 70h-51v24h51q172 0 277 -120q104 -119 104 -308q2 -60 -24.5 -139t-59.5 -141t-59 -122t-23 -87 q0 -50 31 -66h22q7 0 26 2t24 2q13 -3 13 -24t-13 -27q-5 0 -24 3t-26 3q-2 0 -22 -4q-31 -9 -31 -63q-3 -27 23 -86.5t59 -121t59.5 -141t24.5 -141.5q0 -188 -104 -307q-106 -121 -277 -121h-51v27z" />
<glyph unicode="~" d="M78 352q35 277 252 277q95 0 293 -76q201 -74 280 -74q134 0 164 162h82q-14 -124 -78 -198t-172 -74q-96 0 -297 75q-204 76 -274 76q-65 0 -110 -48t-56 -120h-84z" />
<glyph unicode="&#xa1;" horiz-adv-x="487" d="M109 -381q0 69 61 383t61 508h25q0 -194 61 -508q62 -319 62 -383q0 -82 -37 -121t-98 -39t-98 39t-37 121zM109 750q0 60 38.5 100.5t98.5 40.5q54 0 91.5 -40.5t37.5 -100.5q0 -54 -37.5 -91.5t-91.5 -37.5q-60 0 -98.5 36.5t-38.5 92.5z" />
<glyph unicode="&#xa2;" horiz-adv-x="933" d="M84 436q0 187 127 320q126 132 309 135v143h25v-143q132 -9 215 -78q88 -67 88 -147q0 -97 -94 -97q-42 0 -67 22.5t-25 55.5q0 16 12 52t12 61q0 100 -141 106v-860q99 4 187.5 53.5t139.5 128.5l13 -12q-57 -84 -148.5 -135.5t-191.5 -56.5v-144h-25v142 q-180 3 -309 135q-127 133 -127 319zM315 436q0 -172 17.5 -256t60.5 -129q44 -44 127 -47v864q-83 -3 -127 -47q-43 -45 -60.5 -129t-17.5 -256z" />
<glyph unicode="&#xa3;" horiz-adv-x="1232" d="M47 82q0 59 70 108q70 52 170 52q77 0 194 -13q13 60 13 105q0 36 -17 92q-11 36 -51 125q-39 86 -51 119h-144v20h140q-58 158 -58 240q0 179 125 313q126 135 310 135q102 0 178 -67q78 -66 78 -142q0 -45 -38 -80.5t-87 -35.5q-111 0 -111 88q0 17 26.5 63.5 t26.5 67.5q0 84 -108 84q-90 0 -129 -67.5t-39 -237.5q0 -62 24 -191q27 -125 33 -170h186v-20h-186q14 -101 14 -185q0 -92 -106 -258q45 -9 123 -32q101 -29 168 -37q94 -11 190 -11q43 0 74 33t39 82h20q-9 -104 -110 -192q-103 -86 -256 -86q-94 0 -168 20 q-46 16 -64 21q-5 2 -29.5 11t-45.5 17q-43 15 -70 29q-110 -98 -217 -98q-47 0 -82 25t-35 73zM72 88q0 -82 108 -82q83 0 174 82q-146 49 -192 49q-90 0 -90 -49z" />
<glyph unicode="&#xa4;" d="M147 1126l70 70l129 -131q118 92 268 92q141 0 269 -90l129 127l69 -70l-129 -129q92 -133 92 -268q0 -145 -94 -264l131 -133l-69 -70l-131 133q-116 -96 -267 -96q-141 0 -266 94l-129 -129l-69 70l129 129q-95 127 -95 268q0 145 92 266zM291 727q0 -135 94 -229 q95 -95 229 -95q133 0 228 95q96 96 96 229q0 131 -96 227q-97 97 -228 97q-134 0 -229 -95q-94 -94 -94 -229z" />
<glyph unicode="&#xa5;" horiz-adv-x="1251" d="M-16 1341v25h678v-25h-199l319 -692l258 611q34 81 -26 81h-131v25h385v-25h-113q-57 0 -98 -92l-217 -512h295v-22h-304l-43 -103v-131h347v-22h-347v-434h177v-25h-621v25h176v434h-375v22h375v115l-55 119h-320v22h310l-281 604h-190z" />
<glyph unicode="&#xa6;" horiz-adv-x="315" d="M137 -47v559h41v-559h-41zM137 989v559h41v-559h-41z" />
<glyph unicode="&#xa7;" horiz-adv-x="1128" d="M92 381q0 227 197 371q-121 109 -121 252q0 181 115 305q113 125 303 125q150 0 237 -84q86 -83 86 -181q0 -46 -25 -71t-67 -25q-43 0 -69.5 23t-26.5 61q0 17 18 57q19 43 19 58q0 139 -172 139q-131 0 -211 -68.5t-80 -189.5q0 -37 11.5 -70.5t29 -59.5t47.5 -53 t57 -45.5t69 -41t71.5 -36.5t76 -36t72.5 -35q106 -54 172 -139.5t66 -196.5q0 -119 -39 -196q-43 -82 -158 -172q129 -111 129 -252q0 -182 -117 -305q-116 -125 -305 -125q-169 0 -270 84q-98 82 -98 192q0 98 94 98q43 0 68.5 -22.5t25.5 -60.5q0 -15 -18 -56 q-19 -43 -19 -59q0 -156 217 -156q132 0 211.5 69.5t79.5 190.5q0 91 -65.5 162t-174.5 119q-167 74 -231 115q-194 120 -204 289q-1 13 -1 26zM170 539q0 -74 61 -139.5t152 -106.5q139 -68 197 -98q115 -59 180 -115q133 112 133 201q0 74 -61.5 138.5t-153.5 106.5 q-94 46 -197 99q-113 58 -178 114q-133 -100 -133 -200z" />
<glyph unicode="&#xa8;" horiz-adv-x="724" d="M70 1217q0 51 33.5 82.5t84.5 31.5q46 0 80.5 -33t34.5 -81q0 -47 -35 -81t-80 -34q-51 0 -84.5 32.5t-33.5 82.5zM422 1216.5q0 49.5 35 81.5t84.5 32t81.5 -32q35 -32 35 -81.5t-35 -81.5q-32 -32 -81.5 -32t-84.5 32t-35 81.5z" />
<glyph unicode="&#xa9;" horiz-adv-x="1691" d="M104 682q0 297 203 506q202 211 490 211q285 0 487 -211q203 -209 203 -506t-203 -506t-487 -209q-287 0 -490 209t-203 506zM147 682q0 -277 191 -477q191 -197 459 -197q267 0 458 197q193 199 193 477q0 280 -191 477t-460 197q-268 0 -459 -197t-191 -477zM461 686 q0 178 104 303q106 127 260 127q21 0 90 -16q65 -15 89 -15q52 0 55 27h14v-278h-14q0 90 -76 178q-78 90 -158 90q-76 0 -116 -43q-68 -74 -68 -373t68 -373q40 -43 120 -43q96 0 175 97q75 93 75 213h13v-320h-13q-6 33 -49 33q-22 0 -96 -19q-70 -18 -105 -18 q-153 0 -262 127q-106 127 -106 303z" />
<glyph unicode="&#xaa;" horiz-adv-x="729" d="M66 969q0 55 23 95t61 60q68 36 126 39q148 9 148 49v115q0 76 -20 106.5t-64 30.5q-82 0 -82 -65q0 -9 7 -34.5t7 -33.5q0 -63 -69 -63q-37 0 -57.5 23t-20.5 57q0 49 63 94q62 45 152 45q258 0 258 -260v-328q0 -51 37 -51q39 0 51 37l21 -8v-3q-27 -65 -127 -65 q-48 0 -86 26t-50 68q-46 -94 -165 -94q-93 0 -153 41t-60 119zM238 969q0 -75 17.5 -103t57.5 -28q46 0 78.5 31t32.5 69v233q-18 -12 -117 -30q-38 -5 -53.5 -41.5t-15.5 -130.5z" />
<glyph unicode="&#xab;" horiz-adv-x="804" d="M61 451v8q61 34 156 112q55 45 88 102.5t33 112.5h43q0 -95 -37 -188q-36 -98 -78 -143q43 -46 78 -146q37 -93 37 -186h-43q0 55 -33 112.5t-88 102.5q-99 81 -156 113zM397 451v8q61 34 156 112q55 45 88 102.5t33 112.5h43q0 -95 -37 -188q-36 -98 -78 -143 q43 -46 78 -146q37 -93 37 -186h-43q0 55 -33 112.5t-88 102.5q-99 81 -156 113z" />
<glyph unicode="&#xac;" d="M102 633v110h1022v-493h-114v383h-908z" />
<glyph unicode="&#xad;" horiz-adv-x="651" d="M82 416v145h487v-145h-487z" />
<glyph unicode="&#xae;" horiz-adv-x="1691" d="M104 682q0 297 203 506q202 211 490 211q285 0 487 -211q203 -209 203 -506t-203 -506t-487 -209q-287 0 -490 209t-203 506zM147 682q0 -277 191 -477q191 -197 459 -197q267 0 458 197q193 199 193 477q0 280 -191 477t-460 197q-268 0 -459 -197t-191 -477zM451 283 v14h104v790h-104v15h350q120 0 193 -56t73 -145q0 -80 -61 -136t-148 -56q117 0 180.5 -63.5t63.5 -160.5v-100q0 -86 61 -86q35 0 56 27l8 -11q-35 -41 -94 -41q-85 0 -142 58t-57 168v63q0 139 -160 139h-57v-405h94v-14h-360zM717 717h57q85 0 105 33q24 34 24 147 q0 110 -27 150t-104 40h-55v-370z" />
<glyph unicode="&#xaf;" horiz-adv-x="724" d="M49 1120v121h629v-121h-629z" />
<glyph unicode="&#xb0;" horiz-adv-x="552" d="M113 1221q0 63 49.5 110t116.5 47q69 0 116 -45.5t47 -111.5t-47 -112t-116 -46q-67 0 -116.5 47.5t-49.5 110.5zM156 1221q0 -47 37 -82t85.5 -35t83.5 35q37 35 37 82t-37 82q-35 35 -83.5 35t-85.5 -35t-37 -82z" />
<glyph unicode="&#xb1;" d="M102 -18v110h1022v-110h-1022zM102 543v110h449v361h123v-361h450v-110h-450v-359h-123v359h-449z" />
<glyph unicode="&#xb2;" horiz-adv-x="675" d="M86 547v41l201 213q91 114 119 186q28 73 28 191q0 98 -28.5 140t-92.5 42q-43 0 -72.5 -21t-29.5 -57q0 -8 6 -28t6 -25q0 -20 -17.5 -34.5t-45.5 -14.5q-64 0 -64 61q0 43 68 90t149 47q107 0 187 -53q82 -52 82 -158q0 -41 -23.5 -88.5t-54.5 -83.5q-6 -6 -37 -38 t-57 -58q-25 -25 -58.5 -59t-42.5 -43l-119 -127v-6h244q60 0 86.5 21.5t26.5 72.5h16v-211h-477z" />
<glyph unicode="&#xb3;" horiz-adv-x="675" d="M68 668q0 28 16 47.5t47 19.5q28 0 45 -16.5t17 -36.5q0 -7 -5.5 -25t-5.5 -26q0 -72 97 -72q85 0 118 39q35 41 35 178q0 136 -24 176q-20 39 -82 39q-39 0 -109 -37l-10 19q116 56 141 94q31 42 31 156q0 79 -17 104t-69 25q-36 0 -59 -17.5t-23 -46.5q0 -8 6 -25 t6 -24q0 -22 -17 -38.5t-46 -16.5q-62 0 -62 67q0 36 60 78q61 43 135 43q107 0 171 -41.5t64 -118.5q0 -64 -77 -129q-76 -61 -132 -73q4 0 15 1t14 1q108 -4 173 -68.5t65 -157.5q0 -112 -99 -182q-94 -67 -208 -67q-85 0 -150 41q-61 43 -61 90z" />
<glyph unicode="&#xb4;" horiz-adv-x="724" d="M135 1042l287 314q47 47 86 47q35 0 58.5 -24.5t23.5 -57.5q0 -45 -43 -66l-402 -223z" />
<glyph unicode="&#xb5;" horiz-adv-x="1165" d="M33 848v24h368v-657q0 -211 117 -211q95 0 152.5 49t93.5 156v639h-131v24h366v-847h131v-25h-366v141q-25 -77 -92.5 -118t-153.5 -41q-202 0 -291 120q1 -5 8 -45.5t13 -79.5q33 -181 33 -272q2 -27 -3.5 -59t-27 -62t-55.5 -33q-82 0 -82 154q0 85 26 232 q29 164 29 231v680h-135z" />
<glyph unicode="&#xb6;" horiz-adv-x="1189" d="M70 907q0 128 54.5 223.5t149.5 143.5q180 92 428 92h418v-27h-73q-50 0 -81 -46.5t-38 -110.5q-8 -76 -10 -133q-3 -70 -7 -91v-745q0 -248 -53 -410q-96 -305 -418 -305q-80 0 -159 31q-76 30 -76 100q0 39 27 68t65 29t66 -27.5t28 -65.5q0 -34 -18 -61q4 -2 20 -2 q66 0 113.5 46.5t71.5 127.5q40 134 40 307v400q-226 -12 -389 108q-159 123 -159 348zM438 -457q61 0 111 13q102 31 165 86.5t95 144.5q25 64 36 113.5t17 126.5q6 80 6 125q2 31 2 127v759q0 223 93 301h-203q-76 -55 -90 -219q-2 -29 -4.5 -70.5t-3.5 -54.5v-131v-821 q0 -174 -33 -301q-42 -161 -191 -199z" />
<glyph unicode="&#xb7;" horiz-adv-x="452" d="M92 727q0 54 37.5 91.5t91.5 37.5q60 0 98.5 -36.5t38.5 -92.5q0 -60 -38.5 -100.5t-98.5 -40.5q-54 0 -91.5 40.5t-37.5 100.5z" />
<glyph unicode="&#xb8;" horiz-adv-x="724" d="M205 -352q0 21 14 36t37 15q47 0 47 -41q0 -14 -11 -32t-11 -21q0 -41 65 -41q58 0 98.5 26t40.5 66q0 21 -18.5 35.5t-44.5 25t-52 24t-44.5 40t-18.5 65.5q0 79 51 142l25 -6q-25 -25 -25 -52q0 -39 24.5 -65.5t59.5 -38.5q34 -12 59 -44.5t25 -80.5q0 -74 -47 -118 t-133 -44q-66 0 -103.5 32.5t-37.5 76.5z" />
<glyph unicode="&#xb9;" horiz-adv-x="675" d="M182 547v22h94v774h-94v23h242v-797h94v-22h-336z" />
<glyph unicode="&#xba;" horiz-adv-x="804" d="M82 1147q0 139 92 239q94 101 225 101q136 0 230 -101q94 -98 94 -239q0 -139 -94 -240q-94 -98 -230 -98q-131 0 -225 98q-92 103 -92 240zM266 1147q0 -83 6.5 -141.5t17 -92t28.5 -52.5t36 -24.5t45 -5.5q76 0 107 60q31 64 31 256q0 183 -29.5 250t-108.5 67 q-74 0 -103.5 -68t-29.5 -249z" />
<glyph unicode="&#xbb;" horiz-adv-x="804" d="M86 123q0 90 35 186q38 102 80 146q-40 43 -80 143q-35 96 -35 188h43q0 -55 33 -112.5t88 -102.5q95 -78 156 -112v-8q-57 -32 -156 -113q-55 -45 -88 -102.5t-33 -112.5h-43zM422 123q0 90 35 186q38 102 80 146q-40 43 -80 143q-35 96 -35 188h43q0 -55 33 -112.5 t88 -102.5q97 -79 155 -112v-8q-54 -30 -155 -113q-55 -45 -88 -102.5t-33 -112.5h-43z" />
<glyph unicode="&#xbc;" horiz-adv-x="1552" d="M182 547v22h94v774h-94v23h242v-797h94v-22h-336zM340 -10l834 1405l38 -21l-835 -1407zM918 266v15q60 85 86 135l213 403q38 -11 106 19q71 35 100 61l19 -12l-496 -598h277v129q36 1 73 35.5t52 70.5h22v-235h135v-23h-135v-243h94v-23h-336v23h95v243h-305z" />
<glyph unicode="&#xbd;" horiz-adv-x="1552" d="M182 547v22h94v774h-94v23h242v-797h94v-22h-336zM305 -10l834 1405l39 -21l-836 -1407zM946 0v41l201 213q91 114 119 186q28 73 28 191q0 99 -28 140.5t-92 41.5q-43 0 -73 -21.5t-30 -56.5q0 -7 6 -28t6 -25q0 -20 -17.5 -34.5t-45.5 -14.5q-64 0 -64 61q0 43 68 90 t150 47q106 0 186 -53q82 -52 82 -157q0 -41 -23.5 -88.5t-54.5 -83.5q-6 -6 -37 -38.5t-57 -58.5q-25 -25 -58.5 -59t-42.5 -43l-118 -127v-6h243q60 0 86.5 21.5t26.5 72.5h16v-211h-477z" />
<glyph unicode="&#xbe;" horiz-adv-x="1552" d="M68 668q0 28 16 47.5t47 19.5q28 0 45 -16.5t17 -36.5q0 -7 -5.5 -25t-5.5 -26q0 -72 97 -72q85 0 118 39q35 41 35 178q0 136 -24 176q-20 39 -82 39q-39 0 -109 -37l-10 19q116 56 141 94q31 42 31 156q0 79 -17 104t-69 25q-36 0 -59 -17.5t-23 -46.5q0 -8 6 -25 t6 -24q0 -22 -17 -38.5t-46 -16.5q-62 0 -62 67q0 36 60 78q61 43 135 43q107 0 171 -41.5t64 -118.5q0 -64 -77 -129q-76 -61 -132 -73q4 0 15 1t14 1q108 -4 173 -68.5t65 -157.5q0 -112 -99 -182q-94 -67 -208 -67q-85 0 -150 41q-61 43 -61 90zM360 -10l834 1405l39 -21 l-836 -1407zM918 266v15q60 85 86 135l213 403q38 -11 106 19q71 35 100 61l19 -12l-496 -598h277v129q36 1 73 35.5t52 70.5h22v-235h135v-23h-135v-243h94v-23h-336v23h95v243h-305z" />
<glyph unicode="&#xbf;" horiz-adv-x="899" d="M66 -139q0 175 106 293q107 122 252 122q78 0 125 -30v264h22v-326h-2q-35 68 -145 68q-54 0 -82 -31q-21 -24 -27 -86q-4 -78 -4 -274q0 -154 13.5 -227t50.5 -111q39 -39 127 -39q73 0 116.5 46t43.5 122q0 30 -16.5 76.5t-16.5 66.5q0 44 33.5 73.5t89.5 29.5 q122 0 122 -125q0 -102 -120 -207q-119 -107 -252 -107q-192 0 -314 113q-122 110 -122 289zM422 750q0 60 38.5 100.5t98.5 40.5q54 0 91.5 -40.5t37.5 -100.5q0 -54 -37.5 -91.5t-91.5 -37.5q-60 0 -98.5 36.5t-38.5 92.5z" />
<glyph unicode="&#xc0;" horiz-adv-x="1236" d="M-41 0v25h117q42 0 69 79l453 1289h37l498 -1368h174v-25h-641v25h176l-137 426h-410l-125 -347q-12 -31 -15 -50t0 -24t9 -5h168v-25h-373zM301 1778q0 33 23.5 57.5t58.5 24.5q38 0 86 -48l287 -313l-11 -10l-401 223q-43 21 -43 66zM303 475h389l-188 578z" />
<glyph unicode="&#xc1;" horiz-adv-x="1236" d="M-41 0v25h117q42 0 69 79l453 1289h37l498 -1368h174v-25h-641v25h176l-137 426h-410l-125 -347q-12 -31 -15 -50t0 -24t9 -5h168v-25h-373zM303 475h389l-188 578zM485 1503l287 314q47 47 86 47q35 0 58.5 -24.5t23.5 -57.5q0 -45 -43 -66l-401 -223z" />
<glyph unicode="&#xc2;" horiz-adv-x="1236" d="M-41 0v25h117q42 0 69 79l453 1289h37l498 -1368h174v-25h-641v25h176l-137 426h-410l-125 -347q-12 -31 -15 -50t0 -24t9 -5h168v-25h-373zM303 475h389l-188 578zM328 1495q95 98 284 373h9q84 -136 286 -373l-12 -16l-289 174l-266 -174z" />
<glyph unicode="&#xc3;" horiz-adv-x="1236" d="M-41 0v25h117q42 0 69 79l453 1289h37l498 -1368h174v-25h-641v25h176l-137 426h-410l-125 -347q-12 -31 -15 -50t0 -24t9 -5h168v-25h-373zM301 1556q0 99 64 166.5t161 67.5q78 0 154 -61q82 -60 121 -60q45 0 74.5 34t29.5 87h29q0 -95 -74 -166q-71 -68 -170 -68 q-34 0 -66 12.5t-56.5 31t-46.5 36.5t-45 30.5t-44 12.5q-42 0 -71 -36t-29 -87h-31zM303 475h389l-188 578z" />
<glyph unicode="&#xc4;" horiz-adv-x="1236" d="M-41 0v25h117q42 0 69 79l453 1289h37l498 -1368h174v-25h-641v25h176l-137 426h-410l-125 -347q-12 -31 -15 -50t0 -24t9 -5h168v-25h-373zM285 1655q0 54 37.5 91.5t91.5 37.5q60 0 98.5 -36.5t38.5 -92.5q0 -61 -38.5 -101.5t-98.5 -40.5q-54 0 -91.5 41t-37.5 101z M303 475h389l-188 578zM686 1655q0 54 37.5 91.5t91.5 37.5q60 0 98.5 -36.5t38.5 -92.5q0 -61 -38.5 -101.5t-98.5 -40.5q-54 0 -91.5 41t-37.5 101z" />
<glyph unicode="&#xc5;" horiz-adv-x="1236" d="M-41 0v25h117q42 0 69 79l449 1274q-68 11 -116 64.5t-48 120.5q0 91 64 137q64 49 124 49q59 0 123 -49q66 -48 66 -137q0 -67 -50 -120.5t-118 -64.5l494 -1353h174v-25h-641v25h176l-137 426h-410l-125 -347q-12 -31 -15 -50t0 -24t9 -5h168v-25h-373zM303 475h389 l-188 578zM520 1561q0 -91 23 -128.5t75 -37.5t75.5 37.5t23.5 128.5q0 88 -21 130t-78 42t-77.5 -42t-20.5 -130z" />
<glyph unicode="&#xc6;" horiz-adv-x="1806" d="M-74 0v25h123q10 0 17.5 3.5t22 21.5t32.5 54l688 1237h-160v25h1012v-412h-25q0 151 -86 269q-81 118 -245 118h-201v-626h45q103 0 166 76.5t63 185.5h27v-549h-27q0 109 -63 185.5t-166 76.5h-45v-665h207q208 0 317 127q107 128 107 299h22v-451h-1106v25h183v528 h-428l-248 -449q-13 -24 -21 -41t-10.5 -26t0.5 -10q2 -2 12 -2h152v-25h-365zM418 578h416v749z" />
<glyph unicode="&#xc7;" horiz-adv-x="1249" d="M92 682q0 293 172 504q177 213 434 213q45 0 150 -27q108 -24 147 -24q37 0 63.5 13.5t31.5 31.5h22v-465h-22q0 145 -129 295q-127 151 -263 151q-126 0 -192 -69q-115 -124 -115 -623q0 -497 115 -621q65 -71 201 -71q163 0 290 160q127 165 127 356h21v-535h-21 q-5 23 -27.5 40.5t-56.5 17.5q-35 0 -159 -31t-174 -31q-261 0 -439 211q-176 212 -176 504zM524 -352q0 21 14 36t37 15q48 0 48 -41q0 -14 -11.5 -32t-11.5 -21q0 -41 66 -41q58 0 98.5 26t40.5 66q0 21 -18.5 35.5t-44.5 25t-52 24t-44.5 40t-18.5 65.5q0 79 51 142 l24 -6q-24 -24 -24 -52q0 -39 24.5 -65.5t59.5 -38.5q34 -12 59 -44.5t25 -80.5q0 -74 -47 -118t-133 -44q-66 0 -104 32.5t-38 76.5z" />
<glyph unicode="&#xc8;" horiz-adv-x="1220" d="M72 0v25h176v1316h-176v25h1003v-412h-24q0 151 -86 269q-81 118 -246 118h-201v-626h45q103 0 166.5 76.5t63.5 185.5h26v-549h-26q0 109 -63.5 185.5t-166.5 76.5h-45v-665h207q208 0 317 127q107 128 107 299h22v-451h-1099zM375 1778q0 33 23.5 57.5t58.5 24.5 q38 0 86 -48l286 -313l-10 -10l-401 223q-43 21 -43 66z" />
<glyph unicode="&#xc9;" horiz-adv-x="1220" d="M72 0v25h176v1316h-176v25h1003v-412h-24q0 151 -86 269q-81 118 -246 118h-201v-626h45q103 0 166.5 76.5t63.5 185.5h26v-549h-26q0 109 -63.5 185.5t-166.5 76.5h-45v-665h207q208 0 317 127q107 128 107 299h22v-451h-1099zM397 1499l287 313q48 48 86 48 q35 0 58.5 -24.5t23.5 -57.5q0 -45 -43 -66l-401 -223z" />
<glyph unicode="&#xca;" horiz-adv-x="1220" d="M72 0v25h176v1316h-176v25h1003v-412h-24q0 151 -86 269q-81 118 -246 118h-201v-626h45q103 0 166.5 76.5t63.5 185.5h26v-549h-26q0 109 -63.5 185.5t-166.5 76.5h-45v-665h207q208 0 317 127q107 128 107 299h22v-451h-1099zM319 1495q99 102 285 373h8 q82 -131 287 -373l-12 -16l-289 174l-266 -174z" />
<glyph unicode="&#xcb;" horiz-adv-x="1220" d="M72 0v25h176v1316h-176v25h1003v-412h-24q0 151 -86 269q-81 118 -246 118h-201v-626h45q103 0 166.5 76.5t63.5 185.5h26v-549h-26q0 109 -63.5 185.5t-166.5 76.5h-45v-665h207q208 0 317 127q107 128 107 299h22v-451h-1099zM276 1655q0 54 38 91.5t92 37.5 q60 0 98.5 -36.5t38.5 -92.5q0 -61 -38.5 -101.5t-98.5 -40.5q-54 0 -92 41t-38 101zM678 1655q0 54 37.5 91.5t91.5 37.5q60 0 98.5 -36.5t38.5 -92.5q0 -61 -38.5 -101.5t-98.5 -40.5q-54 0 -91.5 41t-37.5 101z" />
<glyph unicode="&#xcc;" horiz-adv-x="768" d="M74 0v25h174v1316h-174v25h624v-25h-178v-1316h178v-25h-624zM88 1778q0 33 23.5 57.5t58.5 24.5q38 0 86 -48l287 -313l-11 -10l-401 223q-43 21 -43 66z" />
<glyph unicode="&#xcd;" horiz-adv-x="768" d="M74 0v25h174v1316h-174v25h624v-25h-178v-1316h178v-25h-624zM233 1499l287 313q48 48 86 48q35 0 58.5 -24.5t23.5 -57.5q0 -45 -43 -66l-401 -223z" />
<glyph unicode="&#xce;" horiz-adv-x="768" d="M74 0v25h174v1316h-174v25h624v-25h-178v-1316h178v-25h-624zM94 1495q99 102 285 373h8q82 -131 287 -373l-12 -16l-289 174l-267 -174z" />
<glyph unicode="&#xcf;" horiz-adv-x="768" d="M49 1655q0 54 37.5 91.5t91.5 37.5q60 0 98.5 -36.5t38.5 -92.5q0 -61 -38.5 -101.5t-98.5 -40.5q-54 0 -91.5 41t-37.5 101zM74 0v25h174v1316h-174v25h624v-25h-178v-1316h178v-25h-624zM451 1655q0 54 37.5 91.5t91.5 37.5q60 0 98.5 -36.5t38.5 -92.5 q0 -61 -38.5 -101.5t-98.5 -40.5q-54 0 -91.5 41t-37.5 101z" />
<glyph unicode="&#xd0;" horiz-adv-x="1368" d="M74 0v25h174v645h-164v24h164v647h-174v25h596q249 0 426 -201q176 -200 176 -483q0 -282 -178 -481q-177 -201 -424 -201h-596zM520 25h150q128 0 192 67q62 65 86 193q25 138 25 397q0 481 -111 592q-64 67 -192 67h-150v-647h180v-24h-180v-645z" />
<glyph unicode="&#xd1;" horiz-adv-x="1355" d="M63 1341v25h488l584 -932v850q0 57 -68 57h-106v25h374v-25h-104q-72 0 -72 -57v-1309h-41l-854 1344v-1235q0 -59 70 -59h106v-25h-374v25h106q68 0 68 59v1257h-177zM360 1556q0 99 64.5 166.5t161.5 67.5q77 0 153 -61q82 -60 121 -60q45 0 75 34t30 87h28 q0 -96 -73 -166q-71 -68 -170 -68q-34 0 -66 12.5t-56.5 31t-46.5 36.5t-45 30.5t-44 12.5q-43 0 -72 -36t-29 -87h-31z" />
<glyph unicode="&#xd2;" horiz-adv-x="1398" d="M92 682q0 293 172 504q177 213 434 213q250 0 428 -211q179 -209 179 -506t-179 -506t-428 -209t-428 209q-178 208 -178 506zM393 682q0 -270 25 -414q27 -138 90 -207q65 -71 190 -71q128 0 193 71q64 67 88 205q25 144 25 416q0 504 -113 623q-66 69 -193 69t-190 -69 q-115 -121 -115 -623zM403 1778q0 33 23.5 57.5t58.5 24.5q38 0 86 -48l287 -313l-10 -10l-402 223q-43 21 -43 66z" />
<glyph unicode="&#xd3;" horiz-adv-x="1398" d="M92 682q0 293 172 504q177 213 434 213q250 0 428 -211q179 -209 179 -506t-179 -506t-428 -209t-428 209q-178 208 -178 506zM393 682q0 -270 25 -414q27 -138 90 -207q65 -71 190 -71q128 0 193 71q64 67 88 205q25 144 25 416q0 504 -113 623q-66 69 -193 69t-190 -69 q-115 -121 -115 -623zM549 1499l287 313q48 48 86 48q35 0 58.5 -24.5t23.5 -57.5q0 -45 -43 -66l-402 -223z" />
<glyph unicode="&#xd4;" horiz-adv-x="1398" d="M92 682q0 293 172 504q177 213 434 213q250 0 428 -211q179 -209 179 -506t-179 -506t-428 -209t-428 209q-178 208 -178 506zM393 682q0 -270 25 -414q27 -138 90 -207q65 -71 190 -71q128 0 193 71q64 67 88 205q25 144 25 416q0 504 -113 623q-66 69 -193 69t-190 -69 q-115 -121 -115 -623zM410 1495q95 98 284 373h8q82 -131 287 -373l-12 -16l-289 174l-266 -174z" />
<glyph unicode="&#xd5;" horiz-adv-x="1398" d="M92 682q0 293 172 504q177 213 434 213q250 0 428 -211q179 -209 179 -506t-179 -506t-428 -209t-428 209q-178 208 -178 506zM383 1556q0 99 64 166.5t161 67.5q78 0 154 -61q82 -60 121 -60q45 0 74.5 34t29.5 87h29q0 -95 -74 -166q-71 -68 -170 -68q-34 0 -66 12.5 t-56.5 31t-46.5 36.5t-45 30.5t-44 12.5q-42 0 -71 -36t-29 -87h-31zM393 682q0 -270 25 -414q27 -138 90 -207q65 -71 190 -71q128 0 193 71q64 67 88 205q25 144 25 416q0 504 -113 623q-66 69 -193 69t-190 -69q-115 -121 -115 -623z" />
<glyph unicode="&#xd6;" horiz-adv-x="1398" d="M92 682q0 293 172 504q177 213 434 213q250 0 428 -211q179 -209 179 -506t-179 -506t-428 -209t-428 209q-178 208 -178 506zM365 1655q0 54 37.5 91.5t91.5 37.5q60 0 98.5 -36.5t38.5 -92.5q0 -61 -38.5 -101.5t-98.5 -40.5q-54 0 -91.5 41t-37.5 101zM393 682 q0 -270 25 -414q27 -138 90 -207q65 -71 190 -71q128 0 193 71q64 67 88 205q25 144 25 416q0 504 -113 623q-66 69 -193 69t-190 -69q-115 -121 -115 -623zM766 1655q0 54 37.5 91.5t91.5 37.5q60 0 98.5 -36.5t38.5 -92.5q0 -61 -38.5 -101.5t-98.5 -40.5q-54 0 -91.5 41 t-37.5 101z" />
<glyph unicode="&#xd7;" d="M215 817l80 78l315 -317l314 313l77 -78l-311 -313l318 -318l-78 -80l-320 320l-313 -313l-78 77l313 314z" />
<glyph unicode="&#xd8;" horiz-adv-x="1398" d="M92 682q0 293 172 504q177 213 434 213q194 0 349 -131l81 141l29 -12l-88 -150q111 -101 173.5 -248.5t62.5 -316.5q0 -297 -179 -506t-428 -209q-173 0 -319 107l-70 -121l-28 12l73 127q-122 99 -192 255t-70 335zM393 682q0 -329 37 -465l537 918q-24 118 -76 170 q-66 69 -193 69t-190 -69q-115 -121 -115 -623zM440 178q27 -73 68 -117q65 -71 190 -71q128 0 193 71q64 67 88 205q25 144 25 416q0 258 -27 408z" />
<glyph unicode="&#xd9;" horiz-adv-x="1333" d="M39 1341v25h623v-25h-181v-976q0 -184 59 -270.5t197 -86.5q182 0 279.5 101.5t97.5 281.5v893q0 57 -70 57h-114v25h385v-25h-107q-69 0 -69 -57v-878q0 -211 -113 -325t-336 -114q-225 0 -351 104.5t-126 307.5v962h-174zM432 1778q0 33 23.5 57.5t58.5 24.5 q38 0 86 -48l287 -313l-10 -10l-402 223q-43 21 -43 66z" />
<glyph unicode="&#xda;" horiz-adv-x="1333" d="M39 1341v25h623v-25h-181v-976q0 -184 59 -270.5t197 -86.5q182 0 279.5 101.5t97.5 281.5v893q0 57 -70 57h-114v25h385v-25h-107q-69 0 -69 -57v-878q0 -211 -113 -325t-336 -114q-225 0 -351 104.5t-126 307.5v962h-174zM578 1499l286 313q48 48 86 48 q35 0 58.5 -24.5t23.5 -57.5q0 -45 -43 -66l-401 -223z" />
<glyph unicode="&#xdb;" horiz-adv-x="1333" d="M39 1341v25h623v-25h-181v-976q0 -184 59 -270.5t197 -86.5q182 0 279.5 101.5t97.5 281.5v893q0 57 -70 57h-114v25h385v-25h-107q-69 0 -69 -57v-878q0 -211 -113 -325t-336 -114q-225 0 -351 104.5t-126 307.5v962h-174zM438 1495q99 102 285 373h8q82 -131 287 -373 l-12 -16l-289 174l-266 -174z" />
<glyph unicode="&#xdc;" horiz-adv-x="1333" d="M39 1341v25h623v-25h-181v-976q0 -184 59 -270.5t197 -86.5q182 0 279.5 101.5t97.5 281.5v893q0 57 -70 57h-114v25h385v-25h-107q-69 0 -69 -57v-878q0 -211 -113 -325t-336 -114q-225 0 -351 104.5t-126 307.5v962h-174zM414 1655q0 54 37.5 91.5t91.5 37.5 q60 0 98.5 -36.5t38.5 -92.5q0 -61 -38.5 -101.5t-98.5 -40.5q-54 0 -91.5 41t-37.5 101zM815 1655q0 54 37.5 91.5t91.5 37.5q60 0 98.5 -36.5t38.5 -92.5q0 -61 -38.5 -101.5t-98.5 -40.5q-54 0 -91.5 41t-37.5 101z" />
<glyph unicode="&#xdd;" horiz-adv-x="1241" d="M-27 1341v25h678v-25h-198l340 -692l278 611q37 81 -27 81h-131v25h385v-25h-112q-55 0 -99 -92l-288 -637v-587h176v-25h-621v25h176v571l-366 745h-191zM612 1499l287 313q48 48 86 48q35 0 58.5 -24.5t23.5 -57.5q0 -45 -43 -66l-401 -223z" />
<glyph unicode="&#xde;" horiz-adv-x="1196" d="M74 0v25h174v1316h-174v25h626v-25h-178v-237v-8h115q243 0 372.5 -111t129.5 -301q0 -180 -113 -277.5t-332 -97.5q-66 0 -172 25v-309h178v-25h-626zM522 365q73 -31 172 -31q118 0 144 63q28 67 28 287q0 209 -53 298t-176 89h-115v-706z" />
<glyph unicode="&#xdf;" horiz-adv-x="1150" d="M66 0v25h118v841q0 287 115 426q118 142 281 142q162 0 272 -84q109 -83 109 -220q0 -221 -265 -323q36 4 66 4q149 0 235 -133q88 -131 88 -305q0 -185 -108 -287t-221 -102q-94 0 -154 57q-59 59 -59 131q0 35 18 56.5t47 21.5q31 0 51.5 -17.5t20.5 -46.5 q0 -7 -9 -32.5t-9 -40.5q0 -107 94 -107q33 0 50.5 9.5t31.5 45.5t19 104.5t5 188.5q0 232 -43.5 328t-146.5 96q-39 0 -72 -20l-12 16q97 57 131 127q33 67 33 234q0 154 -37.5 215t-134.5 61q-80 0 -124 -60.5t-44 -179.5v-1146h120v-25h-466z" />
<glyph unicode="&#xe0;" horiz-adv-x="966" d="M76 199q0 227 297 254q77 6 147 18q36 6 51 16t15 27v162q0 111 -30.5 153.5t-96.5 42.5q-109 0 -109 -94q0 -13 8.5 -44t8.5 -42q0 -37 -27 -59.5t-76 -22.5q-48 0 -74 29t-26 74q0 64 86 123q86 57 209 57q173 0 266.5 -94t93.5 -277v-422q0 -69 47 -69q33 0 74 47 l16 -15q-15 -28 -64 -53.5t-101 -25.5q-69 0 -130 40t-71 95q-46 -135 -207 -135q-128 0 -217 51q-90 53 -90 164zM186 1321q0 33 23.5 57.5t58.5 24.5q39 0 86 -47l287 -314l-10 -10l-402 223q-43 21 -43 66zM309 182q0 -91 23 -128.5t88 -37.5q73 0 119.5 63.5t46.5 156.5 v233q-10 -6 -80 -29q-6 -1 -27.5 -3t-40 -4t-24.5 -3q-59 -12 -82 -64t-23 -184z" />
<glyph unicode="&#xe1;" horiz-adv-x="966" d="M76 199q0 227 297 254q77 6 147 18q36 6 51 16t15 27v162q0 111 -30.5 153.5t-96.5 42.5q-109 0 -109 -94q0 -13 8.5 -44t8.5 -42q0 -37 -27 -59.5t-76 -22.5q-48 0 -74 29t-26 74q0 64 86 123q86 57 209 57q173 0 266.5 -94t93.5 -277v-422q0 -69 47 -69q33 0 74 47 l16 -15q-15 -28 -64 -53.5t-101 -25.5q-69 0 -130 40t-71 95q-46 -135 -207 -135q-128 0 -217 51q-90 53 -90 164zM309 182q0 -91 23 -128.5t88 -37.5q73 0 119.5 63.5t46.5 156.5v233q-10 -6 -80 -29q-6 -1 -27.5 -3t-40 -4t-24.5 -3q-59 -12 -82 -64t-23 -184zM332 1042 l286 314q47 47 87 47q34 0 57.5 -24.5t23.5 -57.5q0 -45 -43 -66l-401 -223z" />
<glyph unicode="&#xe2;" horiz-adv-x="966" d="M76 199q0 227 297 254q77 6 147 18q36 6 51 16t15 27v162q0 111 -30.5 153.5t-96.5 42.5q-109 0 -109 -94q0 -13 8.5 -44t8.5 -42q0 -37 -27 -59.5t-76 -22.5q-48 0 -74 29t-26 74q0 64 86 123q86 57 209 57q173 0 266.5 -94t93.5 -277v-422q0 -69 47 -69q33 0 74 47 l16 -15q-15 -28 -64 -53.5t-101 -25.5q-69 0 -130 40t-71 95q-46 -135 -207 -135q-128 0 -217 51q-90 53 -90 164zM193 1038q95 98 284 373h8q82 -129 287 -373l-12 -16l-289 174l-266 -174zM309 182q0 -91 23 -128.5t88 -37.5q73 0 119.5 63.5t46.5 156.5v233 q-10 -6 -80 -29q-6 -1 -27.5 -3t-40 -4t-24.5 -3q-59 -12 -82 -64t-23 -184z" />
<glyph unicode="&#xe3;" horiz-adv-x="966" d="M76 199q0 227 297 254q77 6 147 18q36 6 51 16t15 27v162q0 111 -30.5 153.5t-96.5 42.5q-109 0 -109 -94q0 -13 8.5 -44t8.5 -42q0 -37 -27 -59.5t-76 -22.5q-48 0 -74 29t-26 74q0 64 86 123q86 57 209 57q173 0 266.5 -94t93.5 -277v-422q0 -69 47 -69q33 0 74 47 l16 -15q-15 -28 -64 -53.5t-101 -25.5q-69 0 -130 40t-71 95q-46 -135 -207 -135q-128 0 -217 51q-90 53 -90 164zM166 1100q0 99 64 166t161 67q78 0 154 -61q82 -60 121 -60q45 0 74.5 34t29.5 87h29q0 -95 -74 -166q-70 -67 -170 -67q-34 0 -66 12.5t-56.5 31t-46.5 36.5 t-45 30.5t-44 12.5q-42 0 -71 -36t-29 -87h-31zM309 182q0 -91 23 -128.5t88 -37.5q73 0 119.5 63.5t46.5 156.5v233q-10 -6 -80 -29q-6 -1 -27.5 -3t-40 -4t-24.5 -3q-59 -12 -82 -64t-23 -184z" />
<glyph unicode="&#xe4;" horiz-adv-x="966" d="M76 199q0 227 297 254q77 6 147 18q36 6 51 16t15 27v162q0 111 -30.5 153.5t-96.5 42.5q-109 0 -109 -94q0 -13 8.5 -44t8.5 -42q0 -37 -27 -59.5t-76 -22.5q-48 0 -74 29t-26 74q0 64 86 123q86 57 209 57q173 0 266.5 -94t93.5 -277v-422q0 -69 47 -69q33 0 74 47 l16 -15q-15 -28 -64 -53.5t-101 -25.5q-69 0 -130 40t-71 95q-46 -135 -207 -135q-128 0 -217 51q-90 53 -90 164zM190 1217q0 51 33.5 82.5t85.5 31.5q46 0 80.5 -33t34.5 -81q0 -47 -35 -81t-80 -34q-51 0 -85 33t-34 82zM309 182q0 -91 23 -128.5t88 -37.5 q73 0 119.5 63.5t46.5 156.5v233q-10 -6 -80 -29q-6 -1 -27.5 -3t-40 -4t-24.5 -3q-59 -12 -82 -64t-23 -184zM543 1216.5q0 49.5 35 81.5t84 32t81 -32q35 -32 35 -81.5t-35 -81.5q-32 -32 -81 -32t-84 32t-35 81.5z" />
<glyph unicode="&#xe5;" horiz-adv-x="966" d="M76 199q0 227 297 254q77 6 147 18q36 6 51 16t15 27v162q0 111 -30.5 153.5t-96.5 42.5q-109 0 -109 -94q0 -13 8.5 -44t8.5 -42q0 -37 -27 -59.5t-76 -22.5q-48 0 -74 29t-26 74q0 64 86 123q86 57 209 57q173 0 266.5 -94t93.5 -277v-422q0 -69 47 -69q33 0 74 47 l16 -15q-15 -28 -64 -53.5t-101 -25.5q-69 0 -130 40t-71 95q-46 -135 -207 -135q-128 0 -217 51q-90 53 -90 164zM295 1249q0 92 63 137q65 50 125 50q58 0 123 -50q66 -48 66 -137q0 -73 -57.5 -128.5t-131.5 -55.5t-131 55.5t-57 128.5zM309 182q0 -91 23 -128.5 t88 -37.5q73 0 119.5 63.5t46.5 156.5v233q-10 -6 -80 -29q-6 -1 -27.5 -3t-40 -4t-24.5 -3q-59 -12 -82 -64t-23 -184zM401 1249q0 -115 31 -151q17 -17 51.5 -17t53.5 17q30 30 30 151q0 124 -30 154q-19 17 -53.5 17t-51.5 -17q-31 -36 -31 -154z" />
<glyph unicode="&#xe6;" horiz-adv-x="1499" d="M76 199q0 227 297 254q77 6 147 18q36 6 51 16t15 27v162q0 111 -30.5 153.5t-96.5 42.5q-109 0 -109 -94q0 -13 8.5 -44t8.5 -42q0 -37 -27 -59.5t-76 -22.5q-48 0 -74 29t-26 74q0 64 86 123q86 57 209 57q189 0 278 -109q128 107 291 107q124 0 219 -74 q91 -68 134.5 -155.5t43.5 -172.5v-6h-606v-47q1 -105 7 -172.5t19 -119t37.5 -79t58.5 -41.5t87 -18q107 0 201.5 51t156.5 136l17 -17q-60 -88 -161.5 -141t-213.5 -53q-111 0 -229 65q-116 69 -181 164q-27 -227 -260 -227q-110 0 -196 51q-86 53 -86 164zM309 182 q0 -91 23 -128.5t88 -37.5q73 0 119.5 63.5t46.5 156.5v233q-10 -6 -80 -29q-6 -1 -27.5 -3t-40 -4t-24.5 -3q-59 -12 -82 -64t-23 -184zM819 508h391q-3 240 -69 315q-34 43 -113 43q-86 0 -129 -43q-77 -77 -80 -315z" />
<glyph unicode="&#xe7;" horiz-adv-x="954" d="M88 436q0 189 131 320q132 135 316 135q136 0 239 -80t103 -166q0 -94 -99 -94q-42 0 -68 22.5t-26 55.5q0 16 13.5 51.5t13.5 60.5q0 63 -47 93q-43 32 -129 32q-82 0 -125 -43q-41 -41 -57.5 -128t-16.5 -259t16.5 -259t57.5 -128q43 -43 125 -43q206 0 344 203l16 -16 q-147 -211 -360 -211q-183 0 -316 133q-131 134 -131 321zM377 -352q0 21 14 36t37 15q47 0 47 -41q0 -14 -11 -32t-11 -21q0 -41 65 -41q58 0 98.5 26t40.5 66q0 21 -18.5 35.5t-44.5 25t-52 24t-44.5 40t-18.5 65.5q0 79 51 142l25 -6q-25 -25 -25 -52q0 -39 24.5 -65.5 t59.5 -38.5q34 -12 59 -44.5t25 -80.5q0 -74 -47 -118t-133 -44q-66 0 -103.5 32.5t-37.5 76.5z" />
<glyph unicode="&#xe8;" horiz-adv-x="1015" d="M88 436q0 188 135 320q138 135 322 135q124 0 219 -74q91 -68 134.5 -155.5t43.5 -172.5v-6h-606v-47q1 -105 7 -172.5t19 -119t37.5 -79t58.5 -41.5t87 -18q107 0 201.5 51t156.5 136l17 -17q-60 -88 -161.5 -141t-213.5 -53q-183 0 -322 133q-135 135 -135 321z M211 1321q0 33 23.5 57.5t58.5 24.5q39 0 86 -47l287 -314l-11 -10l-401 223q-43 21 -43 66zM336 508h391q-3 239 -70 315q-34 43 -112 43q-86 0 -129 -43q-77 -77 -80 -315z" />
<glyph unicode="&#xe9;" horiz-adv-x="1015" d="M88 436q0 188 135 320q138 135 322 135q124 0 219 -74q91 -68 134.5 -155.5t43.5 -172.5v-6h-606v-47q1 -105 7 -172.5t19 -119t37.5 -79t58.5 -41.5t87 -18q107 0 201.5 51t156.5 136l17 -17q-60 -88 -161.5 -141t-213.5 -53q-183 0 -322 133q-135 135 -135 321z M336 508h391q-3 239 -70 315q-34 43 -112 43q-86 0 -129 -43q-77 -77 -80 -315zM397 1042l287 314q47 47 86 47q35 0 58.5 -24.5t23.5 -57.5q0 -45 -43 -66l-401 -223z" />
<glyph unicode="&#xea;" horiz-adv-x="1015" d="M88 436q0 188 135 320q138 135 322 135q124 0 219 -74q91 -68 134.5 -155.5t43.5 -172.5v-6h-606v-47q1 -105 7 -172.5t19 -119t37.5 -79t58.5 -41.5t87 -18q107 0 201.5 51t156.5 136l17 -17q-60 -88 -161.5 -141t-213.5 -53q-183 0 -322 133q-135 135 -135 321z M258 1038q99 102 285 373h8q82 -129 287 -373l-13 -16l-288 174l-267 -174zM336 508h391q-3 239 -70 315q-34 43 -112 43q-86 0 -129 -43q-77 -77 -80 -315z" />
<glyph unicode="&#xeb;" horiz-adv-x="1015" d="M88 436q0 188 135 320q138 135 322 135q124 0 219 -74q91 -68 134.5 -155.5t43.5 -172.5v-6h-606v-47q1 -105 7 -172.5t19 -119t37.5 -79t58.5 -41.5t87 -18q107 0 201.5 51t156.5 136l17 -17q-60 -88 -161.5 -141t-213.5 -53q-183 0 -322 133q-135 135 -135 321z M256 1217q0 51 33.5 82.5t85.5 31.5q45 0 79.5 -33t34.5 -81q0 -47 -34.5 -81t-79.5 -34q-51 0 -85 33t-34 82zM336 508h391q-3 239 -70 315q-34 43 -112 43q-86 0 -129 -43q-77 -77 -80 -315zM608 1216.5q0 49.5 35 81.5t84.5 32t81.5 -32q35 -32 35 -81.5t-35 -81.5 q-32 -32 -81.5 -32t-84.5 32t-35 81.5z" />
<glyph unicode="&#xec;" horiz-adv-x="628" d="M39 1321q0 33 23.5 57.5t58.5 24.5q39 0 86 -47l287 -314l-11 -10l-401 223q-43 21 -43 66zM74 0v25h135v823h-135v24h368v-847h133v-25h-501z" />
<glyph unicode="&#xed;" horiz-adv-x="628" d="M74 0v25h135v823h-135v24h368v-847h133v-25h-501zM143 1042l287 314q47 47 86 47q35 0 58.5 -24.5t23.5 -57.5q0 -45 -43 -66l-401 -223z" />
<glyph unicode="&#xee;" horiz-adv-x="628" d="M25 1038q95 98 284 373h8q82 -129 287 -373l-12 -16l-289 174l-266 -174zM74 0v25h135v823h-135v24h368v-847h133v-25h-501z" />
<glyph unicode="&#xef;" horiz-adv-x="628" d="M23 1217q0 51 33.5 82.5t84.5 31.5q46 0 80.5 -33t34.5 -81q0 -47 -35 -81t-80 -34q-51 0 -84.5 32.5t-33.5 82.5zM74 0v25h135v823h-135v24h368v-847h133v-25h-501zM375 1216.5q0 49.5 35 81.5t84 32t81 -32q35 -32 35 -81.5t-35 -81.5q-32 -32 -81 -32t-84 32t-35 81.5 z" />
<glyph unicode="&#xf0;" horiz-adv-x="1073" d="M88 430q0 181 127 320q129 141 309 141q137 0 201 -94q-27 273 -164 467l-276 -160l-13 20l273 158q-119 154 -295 213l14 16q210 -58 359 -186l225 131l12 -20l-217 -125q163 -142 252.5 -345t89.5 -446q0 -254 -131 -397q-129 -141 -330 -141q-186 0 -311 137t-125 311 zM336 436q0 -307 74 -387q43 -43 127 -43q73 0 118 45q46 46 60 125q16 88 16 260q0 179 -12 260t-49 121q-49 49 -133 49t-127 -43q-74 -80 -74 -387z" />
<glyph unicode="&#xf1;" horiz-adv-x="1185" d="M63 0v25h134v823h-134v24h367v-141q25 77 93 118.5t151 41.5q166 0 260 -90.5t94 -251.5v-524h131v-25h-495v25h129v632q0 209 -119 209q-93 0 -151 -48t-93 -154v-639h133v-25h-500zM276 1100q0 99 64 166t162 67q77 0 153 -61q82 -60 121 -60q45 0 75 34t30 87h28 q0 -96 -73 -166q-70 -67 -170 -67q-34 0 -66 12.5t-56.5 31t-46.5 36.5t-45 30.5t-44 12.5q-43 0 -72 -36t-29 -87h-31z" />
<glyph unicode="&#xf2;" horiz-adv-x="1073" d="M88 436q0 189 131 320q132 135 316 135t317 -133t133 -322q0 -188 -133 -321t-317 -133q-183 0 -316 133q-131 134 -131 321zM240 1321q0 33 23.5 57.5t58.5 24.5q39 0 86 -47l286 -314l-10 -10l-401 223q-43 21 -43 66zM334 436q0 -307 74 -387q43 -43 127 -43 q89 0 129 43q75 75 75 387t-75 387q-40 43 -129 43q-84 0 -127 -43q-74 -80 -74 -387z" />
<glyph unicode="&#xf3;" horiz-adv-x="1073" d="M88 436q0 189 131 320q132 135 316 135t317 -133t133 -322q0 -188 -133 -321t-317 -133q-183 0 -316 133q-131 134 -131 321zM334 436q0 -307 74 -387q43 -43 127 -43q89 0 129 43q75 75 75 387t-75 387q-40 43 -129 43q-84 0 -127 -43q-74 -80 -74 -387zM385 1042 l287 314q47 47 86 47q35 0 58.5 -24.5t23.5 -57.5q0 -45 -43 -66l-402 -223z" />
<glyph unicode="&#xf4;" horiz-adv-x="1073" d="M88 436q0 189 131 320q132 135 316 135t317 -133t133 -322q0 -188 -133 -321t-317 -133q-183 0 -316 133q-131 134 -131 321zM246 1038q95 98 284 373h9q85 -134 286 -373l-12 -16l-289 174l-266 -174zM334 436q0 -307 74 -387q43 -43 127 -43q89 0 129 43q75 75 75 387 t-75 387q-40 43 -129 43q-84 0 -127 -43q-74 -80 -74 -387z" />
<glyph unicode="&#xf5;" horiz-adv-x="1073" d="M88 436q0 189 131 320q132 135 316 135t317 -133t133 -322q0 -188 -133 -321t-317 -133q-183 0 -316 133q-131 134 -131 321zM219 1100q0 99 64 166t161 67q78 0 154 -61q82 -60 121 -60q45 0 74.5 34t29.5 87h29q0 -95 -74 -166q-70 -67 -170 -67q-34 0 -66 12.5 t-56.5 31t-46.5 36.5t-45 30.5t-44 12.5q-42 0 -71 -36t-29 -87h-31zM334 436q0 -307 74 -387q43 -43 127 -43q89 0 129 43q75 75 75 387t-75 387q-40 43 -129 43q-84 0 -127 -43q-74 -80 -74 -387z" />
<glyph unicode="&#xf6;" horiz-adv-x="1073" d="M88 436q0 189 131 320q132 135 316 135t317 -133t133 -322q0 -188 -133 -321t-317 -133q-183 0 -316 133q-131 134 -131 321zM244 1217q0 51 33.5 82.5t84.5 31.5q46 0 80.5 -33t34.5 -81q0 -47 -35 -81t-80 -34q-51 0 -84.5 32.5t-33.5 82.5zM334 436q0 -307 74 -387 q43 -43 127 -43q89 0 129 43q75 75 75 387t-75 387q-40 43 -129 43q-84 0 -127 -43q-74 -80 -74 -387zM596 1216.5q0 49.5 35 81.5t84.5 32t81.5 -32q35 -32 35 -81.5t-35 -81.5q-32 -32 -81.5 -32t-84.5 32t-35 81.5z" />
<glyph unicode="&#xf7;" d="M102 442v111h1022v-111h-1022zM512 131q0 43 28.5 72.5t71.5 29.5t73 -29.5t30 -72.5q0 -41 -31 -71.5t-72 -30.5t-70.5 30.5t-29.5 71.5zM512 862q0 43 29 73t71 30q43 0 73 -30t30 -73q0 -41 -31 -71.5t-72 -30.5t-70.5 30.5t-29.5 71.5z" />
<glyph unicode="&#xf8;" horiz-adv-x="1073" d="M88 436q0 189 131 320q132 135 316 135q124 0 233 -68l68 103l24 -13l-69 -104q91 -63 142.5 -162t51.5 -211q0 -188 -133 -321t-317 -133q-136 0 -248 75l-74 -110l-27 14l76 115q-82 62 -128 157t-46 203zM334 436q0 -150 12 -235l363 536q-15 51 -45 86 q-40 43 -129 43q-84 0 -127 -43q-74 -80 -74 -387zM354 160q15 -68 54 -111q43 -43 127 -43q89 0 129 43q75 75 75 387q0 176 -20 266z" />
<glyph unicode="&#xf9;" horiz-adv-x="1165" d="M33 848v24h368v-657q0 -211 117 -211q95 0 152.5 49t93.5 156v639h-131v24h366v-847h131v-25h-366v141q-25 -77 -92.5 -118t-153.5 -41q-166 0 -258 84.5t-92 242.5v539h-135zM266 1321q0 33 23.5 57.5t58.5 24.5q39 0 86 -47l287 -314l-10 -10l-402 223q-43 21 -43 66z " />
<glyph unicode="&#xfa;" horiz-adv-x="1165" d="M33 848v24h368v-657q0 -211 117 -211q95 0 152.5 49t93.5 156v639h-131v24h366v-847h131v-25h-366v141q-25 -77 -92.5 -118t-153.5 -41q-166 0 -258 84.5t-92 242.5v539h-135zM432 1042l287 314q47 47 86 47q35 0 58.5 -24.5t23.5 -57.5q0 -45 -43 -66l-402 -223z" />
<glyph unicode="&#xfb;" horiz-adv-x="1165" d="M33 848v24h368v-657q0 -211 117 -211q95 0 152.5 49t93.5 156v639h-131v24h366v-847h131v-25h-366v141q-25 -77 -92.5 -118t-153.5 -41q-166 0 -258 84.5t-92 242.5v539h-135zM293 1038q99 102 285 373h8q85 -134 286 -373l-12 -16l-289 174l-266 -174z" />
<glyph unicode="&#xfc;" horiz-adv-x="1165" d="M33 848v24h368v-657q0 -211 117 -211q95 0 152.5 49t93.5 156v639h-131v24h366v-847h131v-25h-366v141q-25 -77 -92.5 -118t-153.5 -41q-166 0 -258 84.5t-92 242.5v539h-135zM289 1217q0 51 33.5 82.5t85.5 31.5q45 0 79.5 -33t34.5 -81q0 -47 -34.5 -81t-79.5 -34 q-51 0 -85 33t-34 82zM641 1216.5q0 49.5 35 81.5t84.5 32t81.5 -32q35 -32 35 -81.5t-35 -81.5q-32 -32 -81.5 -32t-84.5 32t-35 81.5z" />
<glyph unicode="&#xfd;" horiz-adv-x="952" d="M-49 848v24h520v-24h-143l286 -590l193 504q35 86 -31 86h-88v24h313v-24h-75q-39 0 -56.5 -15t-40.5 -71l-481 -1245q-64 -166 -201 -166q-65 0 -110 48.5t-45 115.5q0 54 32.5 91.5t81.5 37.5q43 0 71 -25t28 -61q0 -16 -24.5 -57t-24.5 -58q0 -51 28 -51q91 0 138 121 l176 458l-424 877h-123zM387 1042l287 314q47 47 86 47q35 0 58.5 -24.5t23.5 -57.5q0 -45 -43 -66l-402 -223z" />
<glyph unicode="&#xfe;" horiz-adv-x="1153" d="M51 -606h133v2087h-133v24h365v-704q32 38 87 64t113 26q183 0 314 -143q133 -142 133 -316q0 -179 -119 -313q-117 -135 -297 -135q-60 0 -124.5 28t-106.5 70v-688h133v-25h-498v25zM416 143q28 -63 94 -100t137 -37q91 0 129.5 97.5t38.5 328.5q0 252 -43 342 q-41 92 -156 92q-63 0 -122.5 -32t-77.5 -80v-611z" />
<glyph unicode="&#xff;" horiz-adv-x="952" d="M-49 848v24h520v-24h-143l286 -590l193 504q35 86 -31 86h-88v24h313v-24h-75q-39 0 -56.5 -15t-40.5 -71l-481 -1245q-64 -166 -201 -166q-65 0 -110 48.5t-45 115.5q0 54 32.5 91.5t81.5 37.5q43 0 71 -25t28 -61q0 -16 -24.5 -57t-24.5 -58q0 -51 28 -51q91 0 138 121 l176 458l-424 877h-123zM285 1217q0 51 33.5 82.5t84.5 31.5q46 0 80.5 -33t34.5 -81q0 -47 -35 -81t-80 -34q-51 0 -84.5 32.5t-33.5 82.5zM637 1216.5q0 49.5 35 81.5t84.5 32t81.5 -32q35 -32 35 -81.5t-35 -81.5q-32 -32 -81.5 -32t-84.5 32t-35 81.5z" />
<glyph unicode="&#x152;" horiz-adv-x="1888" d="M92 682q0 289 172 485q172 199 434 199h1045v-412h-25q0 151 -86 269q-81 118 -246 118h-200v-626h45q103 0 166 76.5t63 185.5h27v-549h-27q0 109 -63 185.5t-166 76.5h-45v-665h207q208 0 317 127q107 128 107 299h22v-451h-1139q-252 0 -432 195q-176 194 -176 487z M393 682q0 -268 25 -393q26 -128 93 -196t187 -68h217v1316h-217q-127 0 -190 -69q-63 -66 -89 -202t-26 -388z" />
<glyph unicode="&#x153;" horiz-adv-x="1662" d="M88 436q0 189 131 320q132 135 316 135q196 0 327 -143q137 143 330 143q124 0 219 -74q91 -68 134.5 -155.5t43.5 -172.5v-6h-606v-47q1 -105 7 -172.5t19 -119t37.5 -79t58.5 -41.5t87 -18q107 0 201.5 51t156.5 136l17 -17q-60 -88 -161.5 -141t-213.5 -53 q-193 0 -330 143q-137 -143 -327 -143q-183 0 -316 133q-131 134 -131 321zM334 436q0 -307 74 -387q43 -43 127 -43q89 0 129 43q75 75 75 387t-75 387q-40 43 -129 43q-84 0 -127 -43q-74 -80 -74 -387zM983 508h391q-3 240 -69 315q-34 43 -113 43q-86 0 -129 -43 q-77 -77 -80 -315z" />
<glyph unicode="&#x178;" horiz-adv-x="1241" d="M-27 1341v25h678v-25h-198l340 -692l278 611q37 81 -27 81h-131v25h385v-25h-112q-55 0 -99 -92l-288 -637v-587h176v-25h-621v25h176v571l-366 745h-191zM410 1655q0 54 37.5 91.5t91.5 37.5q60 0 98.5 -36.5t38.5 -92.5q0 -61 -38.5 -101.5t-98.5 -40.5q-54 0 -91.5 41 t-37.5 101zM811 1655q0 54 37.5 91.5t91.5 37.5q60 0 98.5 -36.5t38.5 -92.5q0 -61 -38.5 -101.5t-98.5 -40.5q-54 0 -91.5 41t-37.5 101z" />
<glyph unicode="&#x2c6;" horiz-adv-x="724" d="M72 1038q95 98 284 373h9q85 -134 286 -373l-12 -16l-289 174l-266 -174z" />
<glyph unicode="&#x2dc;" horiz-adv-x="724" d="M45 1100q0 99 64 166t161 67q78 0 154 -61q82 -60 121 -60q45 0 74.5 34t29.5 87h29q0 -95 -74 -166q-70 -67 -170 -67q-34 0 -66 12.5t-56.5 31t-46.5 36.5t-45 30.5t-44 12.5q-42 0 -71 -36t-29 -87h-31z" />
<glyph unicode="&#x2000;" horiz-adv-x="934" />
<glyph unicode="&#x2001;" horiz-adv-x="1868" />
<glyph unicode="&#x2002;" horiz-adv-x="934" />
<glyph unicode="&#x2003;" horiz-adv-x="1868" />
<glyph unicode="&#x2004;" horiz-adv-x="622" />
<glyph unicode="&#x2005;" horiz-adv-x="467" />
<glyph unicode="&#x2006;" horiz-adv-x="311" />
<glyph unicode="&#x2007;" horiz-adv-x="311" />
<glyph unicode="&#x2008;" horiz-adv-x="233" />
<glyph unicode="&#x2009;" horiz-adv-x="373" />
<glyph unicode="&#x200a;" horiz-adv-x="103" />
<glyph unicode="&#x2010;" horiz-adv-x="651" d="M82 416v145h487v-145h-487z" />
<glyph unicode="&#x2011;" horiz-adv-x="651" d="M82 416v145h487v-145h-487z" />
<glyph unicode="&#x2012;" horiz-adv-x="651" d="M82 416v145h487v-145h-487z" />
<glyph unicode="&#x2013;" horiz-adv-x="1024" d="M29 463v41h966v-41h-966z" />
<glyph unicode="&#x2014;" horiz-adv-x="2048" d="M57 463v41h1934v-41h-1934z" />
<glyph unicode="&#x2018;" horiz-adv-x="452" d="M96 1006q0 106 76 231q78 129 182 162l4 -31q-45 -9 -90 -63q-43 -52 -43 -105q0 -72 68 -125q45 -36 45 -100q0 -54 -34.5 -90.5t-84.5 -36.5q-123 0 -123 158z" />
<glyph unicode="&#x2019;" horiz-adv-x="452" d="M94 879q45 9 90 63q43 52 43 105q0 72 -67 124q-45 36 -45 101q0 54 34 90.5t84 36.5q123 0 123 -158q0 -107 -75 -231q-78 -128 -183 -162z" />
<glyph unicode="&#x201a;" horiz-adv-x="452" d="M94 -293q44 9 90 64q43 52 43 104q0 73 -67 125q-45 36 -45 100q0 54 34 90.5t84 36.5q123 0 123 -157q0 -108 -75 -232q-78 -128 -183 -162z" />
<glyph unicode="&#x201c;" horiz-adv-x="837" d="M96 1006q0 106 76 231q78 129 182 162l4 -31q-45 -9 -90 -63q-43 -52 -43 -105q0 -72 68 -125q45 -36 45 -100q0 -54 -34.5 -90.5t-84.5 -36.5q-123 0 -123 158zM481 1006q0 106 76 231q78 129 182 162l4 -31q-45 -9 -90 -63q-43 -52 -43 -105q0 -72 68 -125 q45 -36 45 -100q0 -54 -34.5 -90.5t-84.5 -36.5q-123 0 -123 158z" />
<glyph unicode="&#x201d;" horiz-adv-x="837" d="M94 879q45 9 90 63q43 52 43 105q0 72 -67 124q-45 36 -45 101q0 54 34 90.5t84 36.5q123 0 123 -158q0 -107 -75 -231q-78 -128 -183 -162zM479 879q45 9 90 63q43 52 43 105q0 72 -67 124q-45 36 -45 101q0 54 34 90.5t84 36.5q123 0 123 -158q0 -107 -75 -231 q-78 -128 -183 -162z" />
<glyph unicode="&#x201e;" horiz-adv-x="837" d="M94 -293q44 9 90 64q43 52 43 104q0 73 -67 125q-45 36 -45 100q0 54 34 90.5t84 36.5q123 0 123 -157q0 -108 -75 -232q-78 -128 -183 -162zM479 -293q44 9 90 64q43 52 43 104q0 73 -67 125q-45 36 -45 100q0 54 34 90.5t84 36.5q123 0 123 -157q0 -108 -75 -232 q-78 -128 -183 -162z" />
<glyph unicode="&#x2022;" horiz-adv-x="702" d="M98 725q0 113 74 190q78 78 180 78q104 0 178 -80q76 -76 76 -188q0 -111 -76 -190q-75 -78 -178 -78q-102 0 -180 78q-74 77 -74 190z" />
<glyph unicode="&#x2026;" horiz-adv-x="1263" d="M86 106q0 51 35 86t86 35q55 0 92 -35t37 -86q0 -57 -36 -95t-93 -38q-51 0 -86 38t-35 95zM508 106q0 51 35 86t86 35q56 0 92.5 -34.5t36.5 -86.5q0 -57 -36 -95t-93 -38q-51 0 -86 38t-35 95zM930 106q0 51 36 86t87 35q55 0 92 -35t37 -86q0 -57 -36 -95t-93 -38 q-54 0 -88.5 38t-34.5 95z" />
<glyph unicode="&#x202f;" horiz-adv-x="373" />
<glyph unicode="&#x2039;" horiz-adv-x="446" d="M61 451v8q61 34 156 112q55 45 88 102.5t33 112.5h43q0 -95 -37 -188q-36 -98 -78 -143q43 -46 78 -146q37 -93 37 -186h-43q0 55 -33 112.5t-88 102.5q-99 81 -156 113z" />
<glyph unicode="&#x203a;" horiz-adv-x="446" d="M61 123q0 90 35 186q38 102 80 146q-40 43 -80 143q-35 96 -35 188h43q0 -55 33 -112.5t88 -102.5q95 -78 156 -112v-8q-57 -32 -156 -113q-55 -45 -88 -102.5t-33 -112.5h-43z" />
<glyph unicode="&#x205f;" horiz-adv-x="467" />
<glyph unicode="&#x20ac;" horiz-adv-x="1138" d="M29 590v24h129q-4 78 -4 93q0 54 4 94h-129v24h131q27 251 174 414q148 160 356 160q135 0 209 -59.5t74 -149.5q0 -45 -37 -79t-88 -34q-105 0 -105 92q0 17 22.5 59.5t22.5 63.5q0 35 -28.5 59.5t-69.5 24.5q-169 0 -233 -176q-51 -140 -60 -375h385v-24h-385v-99v-88 h385v-24h-385q3 -237 52 -402q54 -180 213 -180q94 0 157 40t121 128l23 -12q-116 -180 -301 -180q-200 0 -338 163q-137 162 -164 443h-131z" />
<glyph unicode="&#x2122;" horiz-adv-x="1841" d="M55 1085v281h705v-281h-15q0 115 -62 191t-173 76h-23v-791h103v-14h-373v14h107v791h-25q-108 0 -168.5 -76t-60.5 -191h-15zM803 547v14h63q41 0 41 37v754h-104v14h274l207 -575l184 575h271v-14h-105v-791h105v-14h-373v14h104v768l-251 -797h-13l-284 799v-733 q0 -37 43 -37h71v-14h-233z" />
<glyph unicode="&#x25fc;" horiz-adv-x="870" d="M0 0v870h870v-870h-870z" />
</font>
</defs>
</svg>
